(Garage Rock Revival, Garage Punk, Rockabilly) [CD] Gore Gore Girls - Up All Night - 2002, FLAC (tracks+.cue), lossless 

Цитировать
Gore Gore Girls / Up All Night
Жанр: Garage Rock Revival, Garage Punk, Rockabilly
Носитель: CD
Страна-производитель диска (релиза): US
Год издания: 2002
Издатель (лейбл): Get Hip Recordings
Номер по каталогу: GH-1112CD
Страна исполнителя (группы): Detroit, MI, US
Аудиокодек: FLAC (*.flac)
Тип рипа: tracks+.cue
Битрейт аудио: lossless
Продолжительность: 00:38:40
Источник (релизер): Red, shogun
Наличие сканов в содержимом раздачи: нет
Треклист:
01. Astral Man (02:55)
02. Automatic Love (02:38)
03. I Don't Think So (02:34)
04. Up All Night (02:09)
05. Shotgun Wedding (01:40)
06. Keep Your Hands Off My Baby (03:02)
07. Hot Rod Breakdown (02:33)
08. Cross County Lines (02:04)
09. Standing On The Corner (02:28)
10. Atlanta (02:40)
11. Your Last Chance (03:07)
12. Tell Me (I'm Your True Love) (10:47)-

Лог создания рипа

Exact Audio Copy V1.3 from 2. September 2016
EAC extraction logfile from 8. April 2017, 16:45
Gore Gore Girls / Up All Night
Used drive : ATAPI DVD A DH16A6S Adapter: 1 ID: 0
Read mode : SecureUtilize accurate stream : YesDefeat audio cache : YesMake use of C2 pointers : No
Read offset correction : 6Overread into Lead-In and Lead-Out : NoFill up missing offset samples with silence : YesDelete leading and trailing silent blocks : NoNull samples used in CRC calculations : YesUsed interface : Native Win32 interface for Win NT & 2000Gap handling : Appended to previous track
Used output format : User Defined EncoderSelected bitrate : 1024 kBit/sQuality : HighAdd ID3 tag : NoCommand line compressor : C:\Program Files (x86)\Exact Audio Copy\Flac\flac.exeAdditional command line options : -8 -e -p -V -T "ARTIST=%artist%" -T "TITLE=%title%" -T "ALBUM=%albumtitle%" -T "DATE=%year%" -T "TRACKNUMBER=%tracknr%" -T "GENRE=%genre%" -T "PERFORMER=%albuminterpret%" -T "COMPOSER=%composer%" %haslyrics%--tag-from-file=LYRICS="%lyricsfile%"%haslyrics% -T "ALBUMARTIST=%albumartist%" -T "DISCNUMBER=%cdnumber%" -T "TOTALDISCS=%totalcds%" -T "TOTALTRACKS=%numtracks%" -T "COMMENT=%comment%" %source% -o %dest%
TOC of the extracted CD
Track | Start | Length | Start sector | End sector --------------------------------------------------------- 1 | 0:00.00 | 2:55.28 | 0 | 13152 2 | 2:55.28 | 2:38.51 | 13153 | 25053 3 | 5:34.04 | 2:34.17 | 25054 | 36620 4 | 8:08.21 | 2:09.55 | 36621 | 46350 5 | 10:18.01 | 1:40.57 | 46351 | 53907 6 | 11:58.58 | 3:02.44 | 53908 | 67601 7 | 15:01.27 | 2:33.05 | 67602 | 79081 8 | 17:34.32 | 2:04.01 | 79082 | 88382 9 | 19:38.33 | 2:28.05 | 88383 | 99487 10 | 22:06.38 | 2:40.10 | 99488 | 111497 11 | 24:46.48 | 3:07.50 | 111498 | 125572 12 | 27:54.23 | 10:45.58 | 125573 | 174005
Track 1
Filename H:\Gore Gore Girls - Up All Night (2002) [FLAC] {GH-1112CD}\01 Astral Man.wav
Pre-gap length 0:00:02.00
Peak level 100.0 % Extraction speed 3.1 X Track quality 100.0 % Test CRC 560ACF90 Copy CRC 560ACF90 Accurately ripped (confidence 1) [3B11FF5A] (AR v2) Copy OK
Track 2
Filename H:\Gore Gore Girls - Up All Night (2002) [FLAC] {GH-1112CD}\02 Automatic Love.wav
Pre-gap length 0:00:02.00
Peak level 100.0 % Extraction speed 2.5 X Track quality 99.9 % Test CRC 83967ED9 Copy CRC 83967ED9 Accurately ripped (confidence 1) [1CBCAD9A] (AR v2) Copy OK
Track 3
Filename H:\Gore Gore Girls - Up All Night (2002) [FLAC] {GH-1112CD}\03 I Don't Think So.wav
Pre-gap length 0:00:00.66
Peak level 100.0 % Extraction speed 3.4 X Track quality 100.0 % Test CRC 9C9DA445 Copy CRC 9C9DA445 Accurately ripped (confidence 1) [9DBFFC7A] (AR v2) Copy OK
Track 4
Filename H:\Gore Gore Girls - Up All Night (2002) [FLAC] {GH-1112CD}\04 Up All Night.wav
Pre-gap length 0:00:02.00
Peak level 100.0 % Extraction speed 3.5 X Track quality 100.0 % Test CRC 850688D3 Copy CRC 850688D3 Accurately ripped (confidence 1) [844CFC1D] (AR v2) Copy OK
Track 5
Filename H:\Gore Gore Girls - Up All Night (2002) [FLAC] {GH-1112CD}\05 Shotgun Wedding.wav
Pre-gap length 0:00:02.00
Peak level 100.0 % Extraction speed 3.4 X Track quality 100.0 % Test CRC 7F350429 Copy CRC 7F350429 Accurately ripped (confidence 1) [7D3938AE] (AR v2) Copy OK
Track 6
Filename H:\Gore Gore Girls - Up All Night (2002) [FLAC] {GH-1112CD}\06 Keep Your Hands Off My Baby.wav
Pre-gap length 0:00:00.33
Peak level 100.0 % Extraction speed 3.2 X Track quality 99.9 % Test CRC 93A10068 Copy CRC 93A10068 Accurately ripped (confidence 1) [40B1ED00] (AR v2) Copy OK
Track 7
Filename H:\Gore Gore Girls - Up All Night (2002) [FLAC] {GH-1112CD}\07 Hot Rod Breakdown.wav
Pre-gap length 0:00:00.16
Peak level 100.0 % Extraction speed 3.1 X Track quality 99.9 % Test CRC 9ABFD380 Copy CRC 9ABFD380 Accurately ripped (confidence 1) [F09352F4] (AR v2) Copy OK
Track 8
Filename H:\Gore Gore Girls - Up All Night (2002) [FLAC] {GH-1112CD}\08 Cross County Lines.wav
Pre-gap length 0:00:02.00
Peak level 100.0 % Extraction speed 4.1 X Track quality 100.0 % Test CRC 9B7C5DF0 Copy CRC 9B7C5DF0 Accurately ripped (confidence 1) [611C49FC] (AR v2) Copy OK
Track 9
Filename H:\Gore Gore Girls - Up All Night (2002) [FLAC] {GH-1112CD}\09 Standing On The Corner.wav
Pre-gap length 0:00:02.00
Peak level 100.0 % Extraction speed 3.3 X Track quality 99.9 % Test CRC CB54DFB7 Copy CRC CB54DFB7 Accurately ripped (confidence 1) [D4175F81] (AR v2) Copy OK
Track 10
Filename H:\Gore Gore Girls - Up All Night (2002) [FLAC] {GH-1112CD}\10 Atlanta.wav
Pre-gap length 0:00:02.00
Peak level 100.0 % Extraction speed 4.6 X Track quality 100.0 % Test CRC 1A5A8102 Copy CRC 1A5A8102 Accurately ripped (confidence 1) [6E238791] (AR v2) Copy OK
Track 11
Filename H:\Gore Gore Girls - Up All Night (2002) [FLAC] {GH-1112CD}\11 Your Last Chance.wav
Pre-gap length 0:00:01.00
Peak level 100.0 % Extraction speed 4.9 X Track quality 100.0 % Test CRC 63DE86CC Copy CRC 63DE86CC Accurately ripped (confidence 1) [52DD6BC9] (AR v2) Copy OK
Track 12
Filename H:\Gore Gore Girls - Up All Night (2002) [FLAC] {GH-1112CD}\12 Tell Me (I'm Your True Love).wav
Pre-gap length 0:00:01.00
Peak level 100.0 % Extraction speed 6.0 X Track quality 100.0 % Test CRC 912DAD8E Copy CRC 912DAD8E Accurately ripped (confidence 1) [93A836DB] (AR v2) Copy OK
All tracks accurately ripped
No errors occurred
End of status report
---- CUETools DB Plugin V2.1.6
[CTDB TOCID: yfAdN1tPIFDvSON4UR.wwL.QAGs-] foundSubmit result: yfAdN1tPIFDvSON4UR.wwL.QAGs- has been confirmedTrack | CTDB Status 1 | (2/2) Accurately ripped 2 | (2/2) Accurately ripped 3 | (2/2) Accurately ripped 4 | (2/2) Accurately ripped 5 | (2/2) Accurately ripped 6 | (2/2) Accurately ripped 7 | (2/2) Accurately ripped 8 | (2/2) Accurately ripped 9 | (2/2) Accurately ripped 10 | (2/2) Accurately ripped 11 | (2/2) Accurately ripped 12 | (2/2) Accurately ripped
==== Log checksum CB84A4AF74E5883BC27EEEDBBAB4E7D32A04ADDC583C0E0852B7AC31D523418D ====

Содержание индексной карты (.CUE)

REM GENRE "Garage Rock/Pop/Punk"REM DATE 2002REM DISCID 9409100CREM COMMENT "ExactAudioCopy v1.3"PERFORMER "Gore Gore Girls"TITLE "Up All Night"REM COMPOSER ""FILE "01 Astral Man.wav" WAVE  TRACK 01 AUDIO    TITLE "Astral Man"    PERFORMER "Gore Gore Girls"    REM COMPOSER ""    INDEX 01 00:00:00  TRACK 02 AUDIO    TITLE "Automatic Love"    PERFORMER "Gore Gore Girls"    REM COMPOSER ""    INDEX 00 02:53:28FILE "02 Automatic Love.wav" WAVE    INDEX 01 00:00:00  TRACK 03 AUDIO    TITLE "I Don't Think So"    PERFORMER "Gore Gore Girls"    REM COMPOSER ""    INDEX 00 02:38:01FILE "03 I Don't Think So.wav" WAVE    INDEX 01 00:00:00  TRACK 04 AUDIO    TITLE "Up All Night"    PERFORMER "Gore Gore Girls"    REM COMPOSER ""    INDEX 00 02:32:17FILE "04 Up All Night.wav" WAVE    INDEX 01 00:00:00  TRACK 05 AUDIO    TITLE "Shotgun Wedding"    PERFORMER "Gore Gore Girls"    REM COMPOSER ""    INDEX 00 02:07:55FILE "05 Shotgun Wedding.wav" WAVE    INDEX 01 00:00:00  TRACK 06 AUDIO    TITLE "Keep Your Hands Off My Baby"    PERFORMER "Gore Gore Girls"    REM COMPOSER ""    INDEX 00 01:40:32FILE "06 Keep Your Hands Off My Baby.wav" WAVE    INDEX 01 00:00:00  TRACK 07 AUDIO    TITLE "Hot Rod Breakdown"    PERFORMER "Gore Gore Girls"    REM COMPOSER ""    INDEX 00 03:02:32FILE "07 Hot Rod Breakdown.wav" WAVE    INDEX 01 00:00:00  TRACK 08 AUDIO    TITLE "Cross County Lines"    PERFORMER "Gore Gore Girls"    REM COMPOSER ""    INDEX 00 02:31:05FILE "08 Cross County Lines.wav" WAVE    INDEX 01 00:00:00  TRACK 09 AUDIO    TITLE "Standing On The Corner"    PERFORMER "Gore Gore Girls"    REM COMPOSER ""    INDEX 00 02:02:01FILE "09 Standing On The Corner.wav" WAVE    INDEX 01 00:00:00  TRACK 10 AUDIO    TITLE "Atlanta"    PERFORMER "Gore Gore Girls"    REM COMPOSER ""    INDEX 00 02:26:05FILE "10 Atlanta.wav" WAVE    INDEX 01 00:00:00  TRACK 11 AUDIO    TITLE "Your Last Chance"    PERFORMER "Gore Gore Girls"    REM COMPOSER ""    INDEX 00 02:39:10FILE "11 Your Last Chance.wav" WAVE    INDEX 01 00:00:00  TRACK 12 AUDIO    TITLE "Tell Me (I'm Your True Love)"    PERFORMER "Gore Gore Girls"    REM COMPOSER ""    INDEX 00 03:06:50FILE "12 Tell Me (I'm Your True Love).wav" WAVE    INDEX 01 00:00:00

Лог проверки качества

fooCDtect - foobar2000 + auCDtect, baralgin.
auCDtect: CD records authenticity detector, version 0.8.2Copyright (c) 2004 Oleg Berngardt. All rights reserved.Copyright (c) 2004 Alexander Djourik. All rights reserved.
mode: 0
=========================================== Track: 01. Astral Man Quality: CDDA 100%=========================================== Track: 02. Automatic Love Quality: CDDA 100%=========================================== Track: 03. I Don't Think So Quality: CDDA 100%=========================================== Track: 04. Up All Night Quality: CDDA 100%=========================================== Track: 05. Shotgun Wedding Quality: CDDA 100%=========================================== Track: 06. Keep Your Hands Off My Baby Quality: CDDA 99%=========================================== Track: 07. Hot Rod Breakdown Quality: CDDA 100%=========================================== Track: 08. Cross County Lines Quality: CDDA 100%=========================================== Track: 09. Standing On The Corner Quality: CDDA 100%=========================================== Track: 10. Atlanta Quality: CDDA 100%=========================================== Track: 11. Your Last Chance Quality: CDDA 100%=========================================== Track: 12. Tell Me (I'm Your True Love) Quality: CDDA 100%===========================================
Вы не можете начинать темы
Вы не можете отвечать на сообщения
Вы не можете редактировать свои сообщения
Вы не можете удалять свои сообщения
Вы не можете голосовать в опросах
Вы не можете прикреплять файлы к сообщениям
Вы можете скачивать файлы
!ВНИМАНИЕ!

Сайт не предоставляет электронные версии произведений, а занимается лишь коллекционированием и каталогизацией ссылок, присылаемых и публикуемых на форуме нашими читателями. Если вы являетесь правообладателем какого-либо представленного материала и не желаете, чтобы ссылка на него находилась в нашем каталоге, свяжитесь с нами, и мы незамедлительно удалим ее. Файлы для обмена на трекере предоставлены пользователями сайта, и администрация не несет ответственности за их содержание. Просьба не заливать файлы, защищенные авторскими правами, а также файлы нелегального содержания!

Искали программы, игры, дополнения, музыка mp3, аниме, аудио книги, журналы? Добро пожаловать на свободный торрент трекер Torrents, у нас можно скачать бесплатно, без смс и регистрации и прочих ограничений лучшие, отборные сборки программ, игр. Скачать торрентом не составит труда даже не опытному пользователю. Раздачи ежедневно обновляются, только лучшие и качественные раздачи, подробные описания и скриншоты. Огромная коллекция программ для работы со звуком, графикой, дизайном, а так же множество плагинов и инструментов к ним с подробной инструкцией и рекомендациями. Прошивки для навигаторов, карты. Разнообразные игры, для Windows, Linux. В коллекцие есть и старые игры любых жанров, Rpg, Action, Shooter, strategy Множество дополнений, модификаций, сценариев для популярных игр в жанре экш, рпг, гонки, стратегии, логические игры. Множество аддонов и сценариев для Microsoft Flight Simulator Большая коллекция книг, учебников. Если нет возможности купить печатное издание - смело скачивайте цифровую версию книги или, быть может, журнала. Не любите читать - можно загрузить бесплатно аудикнигу. Для веб дизайнеров и программистов так же найдется множество специализированного софта, таких как: редакторы с подсветкой, среды программирования, компоненты, системы управления базами данных, разнообразные скрипты и шаблоны. Не так давно у нас появился материал для автолюбителей и владельцев мото - оригинальные и неоригинальные каталоги запчастей, книги и журналы по ремонту и обслуживанию, видеоуроки, статьи по чип тюнингу, прошивкам. Процедура получения контента элементарная, достаточно просто скачать торрент файл и добавить его в загрузку в вашем торрент клиенте. Если у вас нет специального торрент клиента, вы можете его скачать у нас.