(Primitive Rock & Roll, Thrash Delta Blues, Garage, Punk, Voodoo Rhythm) [CD] Reverend (Lightning) Beat-Man - 6 Альбомов [6xCD] 1998-2018, FLAC (tracks+.cue), (image+.cue) lossless 

Цитировать
Reverend Beat-Man- -6 АльбомовЖанр: Primitive Rock & Roll, Thrash Delta Blues, Garage, Punk
Страна-производитель диска: Switzerland
Год издания: 1998-2018
Издатель (лейбл): Voodoo Rhythm
Номер по каталогу: VRCD02, VRCD09, VRCD28, VRCD40 & VRCD41
Страна: Switzerland, Burn (in Hell)
Аудиокодек: FLAC (*.flac)
Тип рипа: tracks+.cue, image+.cue
Битрейт аудио: lossless
Продолжительность: 03:41:50
Источник (релизер): stlth, ice59, Ed(die)_Hunter, bysh,
все - местные братья во Христе & Red, donkeybrothel
Наличие сканов в содержимом раздачи: да- -
Дерганный, разрушенный до основания и наспех склеенный вновь панк-блюз, где сыграно всё настолько сыро, коряво, но до того мощно и вдохновенно, что сомнений нет – Вас не обманут. Reverend Beat-Man предпочитает разговаривать на уровне лозунгов и повелительного наклонения, и все его музыкальное предприятие зовётся «Сюрреалистическим фолк-блюзом и помойным госпелом». Швейцарец собрал вокруг себя целую команду фанатов гаражного рока, основав влиятельнейший лейбл Voodoo Rhythm, и за несколько лет из совершенно убыточного и безнадежного предприятия оно превратилось в «эталон стиля, универсальное мерило вкуса, а также в убежище для десятка крайне интересных и самобытных музыкантов» (Феликс Сандалов, музыкальный критик).
Битмен играет в различных подпольных группах начиная с 13 лет, причем большую часть сопровождающих коллективов выдумывает себе сам: один из этих воображаемых составов носил говорящее название Never Heard of Em’s. Голос исполнителя запоминается на всю жизнь: «надорваный железный хрип, больше похожий на стоны разбитого робота из советской фантастики, скрежетание железной щетки, лязг и дребезг помятого кадиллака». Reverend Beatman – настоящий злой дух гаражного рока, человек, живущий своим примитивным рок-н-роллом и готовый за него умереть. А.К. Троицкий: «Преподобный Beat-Man - самое экстремальное, что благополучная страна Швейцария дала мировой цивилизации. Этот анархист и богохульник выставляет напоказ самую темную сторону рок-н-ролла - секс, ужас и чертовщину. Причем, делает это с таким смаком, на который большинство американцев уже не способно».
-1998 - Apartment Wrestling Roch'n'rollLightning Beat-Man & The Never Heard Of EMS - Apartment Wrestling Roch'n'roll- Label: Voodoo Rhythm
Catalog#: VRCD02
Продолжительность: 00:37:29
Трэклист:
01. Welcom To Apartment Wrestling 00:28
02. Apartment Wrestling Rock'n'roll 02:46
03. Radio Rabe Switzerland 00:22
04. Sonic Nightmares 01:17
05. I Love You 03:01
06. Sexton Ming/MAA Intro 00:31
07. I'm Gonna Kill Ya Tonight 02:29
08. What Is Rock'n'roll 00:46
09. Honey Baby Blues 02:07
10. I Got The Rock In My Underpants 02:31
11. Tke It Off 00:53
12. Pie Eater 00:52
13. Studio Brussels/Antwerpen 01:01
14. Wild Baby Wow 01:56
15. I Said Yea 02:17
16. Jorge From Xixon 00:34
17. I Hate To Dance 02:17
18. Radio Osaka Japan 00:37
19. I Wanna Be Your Pussycat 01:31
20. Sell Your Self 00:37
21. Bring Back The Death Penalty 02:05
22. The Girl With The Blue Black Hair 02:43
23. LBM Impersonator From Poland 00:32
24. Wrestling With Satan 01:51
25. MAA 01:13- -Благодарим брата ice59-

Лог создания рипа

Exact Audio Copy V0.99 prebeta 5 from 4. May 2009
Отчёт EAC об извлечении, выполненном 5. октября 2009, 19:27
Lightning Beat-Man & The Never Heard Of EMS / Apartment Wrestling Roch'n'roll
Дисковод: _NEC DVD_RW ND-3520A Adapter: 1 ID: 0
Режим чтения : ДостоверностьИспользование точного потока : ДаОтключение кэша аудио : ДаИспользование указателей C2 : Нет
Коррекция смещения при чтении : 48Способность читать области Lead-in и Lead-out : НетЗаполнение пропущенных сэмплов тишиной : ДаУдаление блоков с тишиной в начале и конце : НетПри вычислениях CRC использовались нулевые сэмплы : ДаИнтерфейс : Встроенный Win32-интерфейс для Win NT/2000
Выходной формат : Пользовательский кодировщикВыбранный битрейт : 768 kBit/sКачество : ВысокийДобавление ID3-тэга : НетУтилита сжатия : C:\Program Files\Exact Audio Copy\FLAC\FLAC.EXEДополнительные параметры : -6 -V -T "ARTIST=%a" -T "TITLE=%t" -T "ALBUM=%g" -T "DATE=%y" -T "TRACKNUMBER=%n" -T "GENRE=%m" -T "COMMENT=%e" %s -o %d
TOC извлечённого CD
Трек | Старт | Длительность | Начальный сектор | Конечный сектор --------------------------------------------------------------------- 1 | 0:00.00 | 0:28.03 | 0 | 2102 2 | 0:28.03 | 2:46.71 | 2103 | 14623 3 | 3:14.74 | 0:22.73 | 14624 | 16346 4 | 3:37.72 | 1:17.40 | 16347 | 22161 5 | 4:55.37 | 3:01.06 | 22162 | 35742 6 | 7:56.43 | 0:31.31 | 35743 | 38098 7 | 8:27.74 | 2:29.05 | 38099 | 49278 8 | 10:57.04 | 0:46.11 | 49279 | 52739 9 | 11:43.15 | 2:07.17 | 52740 | 62281 10 | 13:50.32 | 2:31.15 | 62282 | 73621 11 | 16:21.47 | 0:53.64 | 73622 | 77660 12 | 17:15.36 | 0:52.24 | 77661 | 81584 13 | 18:07.60 | 1:01.36 | 81585 | 86195 14 | 19:09.21 | 1:56.00 | 86196 | 94895 15 | 21:05.21 | 2:17.47 | 94896 | 105217 16 | 23:22.68 | 0:34.29 | 105218 | 107796 17 | 23:57.22 | 2:17.59 | 107797 | 118130 18 | 26:15.06 | 0:37.15 | 118131 | 120920 19 | 26:52.21 | 1:31.67 | 120921 | 127812 20 | 28:24.13 | 0:37.43 | 127813 | 130630 21 | 29:01.56 | 2:05.54 | 130631 | 140059 22 | 31:07.35 | 2:43.10 | 140060 | 152294 23 | 33:50.45 | 0:32.61 | 152295 | 154755 24 | 34:23.31 | 1:51.48 | 154756 | 163128 25 | 36:15.04 | 1:13.35 | 163129 | 168638
Характеристики диапазона извлечения и сообщения об ошибках
Выбранный диапазон
Имя файла C:\МUSIC\torrent\Lightning Beat-Man & The Never Heard Of EMS - Apartment Wrestling Roch'n'roll.wav
Пиковый уровень 98.8 % Качество диапазона 99.9 % CRC теста 57C83791 CRC копии 57C83791 Копирование... OK
Ошибок не произошло
AccurateRip: сводка
Трек 1 нет в базе данныхТрек 2 нет в базе данныхТрек 3 нет в базе данныхТрек 4 нет в базе данныхТрек 5 нет в базе данныхТрек 6 нет в базе данныхТрек 7 нет в базе данныхТрек 8 нет в базе данныхТрек 9 нет в базе данныхТрек 10 нет в базе данныхТрек 11 нет в базе данныхТрек 12 нет в базе данныхТрек 13 нет в базе данныхТрек 14 нет в базе данныхТрек 15 нет в базе данныхТрек 16 нет в базе данныхТрек 17 нет в базе данныхТрек 18 нет в базе данныхТрек 19 нет в базе данныхТрек 20 нет в базе данныхТрек 21 нет в базе данныхТрек 22 нет в базе данныхТрек 23 нет в базе данныхТрек 24 нет в базе данныхТрек 25 нет в базе данных
Ни одного трека нет в базе AccurateRip
Конец отчёта

Содержание индексной карты (.CUE)

REM GENRE "Rock & Roll"REM DATE 1998REM DISCID 5F08C819REM COMMENT "ExactAudioCopy v0.99pb5"PERFORMER "Lightning Beat-Man & The Never Heard Of EMS"TITLE "Apartment Wrestling Roch'n'roll"FILE "Lightning Beat-Man & The Never Heard Of EMS - Apartment Wrestling Roch'n'roll.flac" WAVE  TRACK 01 AUDIO    TITLE "Welcom To Apartment Wrestling"    PERFORMER "Lightning Beat-Man & The Never Heard Of EMS"    INDEX 01 00:00:00  TRACK 02 AUDIO    TITLE "Apartment Wrestling Rock'n'roll"    PERFORMER "Lightning Beat-Man & The Never Heard Of EMS"    INDEX 01 00:28:03  TRACK 03 AUDIO    TITLE "Radio Rabe Switzerland"    PERFORMER "Lightning Beat-Man & The Never Heard Of EMS"    INDEX 01 03:14:74  TRACK 04 AUDIO    TITLE "Sonic Nightmares"    PERFORMER "Lightning Beat-Man & The Never Heard Of EMS"    INDEX 01 03:37:72  TRACK 05 AUDIO    TITLE "I Love You"    PERFORMER "Lightning Beat-Man & The Never Heard Of EMS"    INDEX 01 04:55:37  TRACK 06 AUDIO    TITLE "Sexton Ming/MAA Intro"    PERFORMER "Lightning Beat-Man & The Never Heard Of EMS"    INDEX 01 07:56:43  TRACK 07 AUDIO    TITLE "I'm Gonna Kill Ya Tonight"    PERFORMER "Lightning Beat-Man & The Never Heard Of EMS"    INDEX 01 08:27:74  TRACK 08 AUDIO    TITLE "What Is Rock'n'roll"    PERFORMER "Lightning Beat-Man & The Never Heard Of EMS"    INDEX 01 10:57:04  TRACK 09 AUDIO    TITLE "Honey Baby Blues"    PERFORMER "Lightning Beat-Man & The Never Heard Of EMS"    INDEX 01 11:43:15  TRACK 10 AUDIO    TITLE "I Got The Rock In My Underpants"    PERFORMER "Lightning Beat-Man & The Never Heard Of EMS"    INDEX 01 13:50:32  TRACK 11 AUDIO    TITLE "Tke It Off"    PERFORMER "Lightning Beat-Man & The Never Heard Of EMS"    INDEX 01 16:21:47  TRACK 12 AUDIO    TITLE "Pie Eater"    PERFORMER "Lightning Beat-Man & The Never Heard Of EMS"    INDEX 01 17:15:36  TRACK 13 AUDIO    TITLE "Studio Brussels/Antwerpen"    PERFORMER "Lightning Beat-Man & The Never Heard Of EMS"    INDEX 01 18:07:60  TRACK 14 AUDIO    TITLE "Wild Baby Wow"    PERFORMER "Lightning Beat-Man & The Never Heard Of EMS"    INDEX 01 19:09:21  TRACK 15 AUDIO    TITLE "I Said Yea"    PERFORMER "Lightning Beat-Man & The Never Heard Of EMS"    INDEX 01 21:05:21  TRACK 16 AUDIO    TITLE "Jorge From Xixon"    PERFORMER "Lightning Beat-Man & The Never Heard Of EMS"    INDEX 01 23:22:68  TRACK 17 AUDIO    TITLE "I Hate To Dance"    PERFORMER "Lightning Beat-Man & The Never Heard Of EMS"    INDEX 01 23:57:22  TRACK 18 AUDIO    TITLE "Radio Osaka Japan"    PERFORMER "Lightning Beat-Man & The Never Heard Of EMS"    INDEX 01 26:15:06  TRACK 19 AUDIO    TITLE "I Wanna Be Your Pussycat"    PERFORMER "Lightning Beat-Man & The Never Heard Of EMS"    INDEX 01 26:52:21  TRACK 20 AUDIO    TITLE "Sell Your Self"    PERFORMER "Lightning Beat-Man & The Never Heard Of EMS"    INDEX 01 28:24:13  TRACK 21 AUDIO    TITLE "Bring Back The Death Penalty"    PERFORMER "Lightning Beat-Man & The Never Heard Of EMS"    INDEX 01 29:01:56  TRACK 22 AUDIO    TITLE "The Girl With The Blue Black Hair"    PERFORMER "Lightning Beat-Man & The Never Heard Of EMS"    INDEX 01 31:07:35  TRACK 23 AUDIO    TITLE "LBM Impersonator From Poland"    PERFORMER "Lightning Beat-Man & The Never Heard Of EMS"    INDEX 01 33:50:45  TRACK 24 AUDIO    TITLE "Wrestling With Satan"    PERFORMER "Lightning Beat-Man & The Never Heard Of EMS"    INDEX 01 34:23:31  TRACK 25 AUDIO    TITLE "MAA"    PERFORMER "Lightning Beat-Man & The Never Heard Of EMS"    INDEX 01 36:15:04

Лог проверки качества

AUDIOCHECKER v2.0 beta (build 457) - by Dester - opdester@freemail.hu~~~~~~~~~~~~~~~~~~~~~~~~~~~~~~~~~~-=== DO NOT EDIT THIS FILE! ===-
Path: ...\Lightning Beat-Man & The Never Heard Of EMS - Apartment Wrestling Roch'n'roll
1 -=- Lightning Beat-Man & The Never Heard Of EMS - Apartment Wrestling Roch'n'roll.flac -=- CDDA (100%)
36767700

Adobe Audition - пара треков


2001 - Get On Your KneesReverend Beat-Man & The Un-believers / Get On Your Knees- Label: Voodoo Rhythm
Catalog#: VRCD09
Продолжительность: 00:34:26
Трэклист:
01. Get On Your Knees
02. Come Back Lord
03. Back In Hell
04. How Far Can You Go
05. Save My Soul From Hell
06. They Ring The Bells For Me
07. The Lord Is Coming Back
08. Oh Lord!
09. You Don't Have To Do It
10. Fuck You Jesus Fuck You Oh Lord
11. Show Me How
12. You Don't Know
13. Popcorn Up Your Arse-Reverend Beat-Man - kick drum, guitar, preaching.
Brother Janosh - casio, yamaha, tapedeck.
Fuzzy.J.Butler - slide,guitar, harp.
Gringo Starr - drums.
Gerry Mohr - church organ, piano.-"Дикий рок-н-ролл, спетый дурным голосом и сыгранный со возможно большей грязью, каукю только способны воспроизвести гитары. Для гаража, конечно, легковато, но для наследников панка - в самый раз. Будьте осторожны - при длительном прослушивании возможна некоторая одурь от напористого жизнелюбия этих парней." (с)-Благодарим брата Ed(die)_Hunter-

Лог создания рипа

Exact Audio Copy V0.99 prebeta 4 from 23. January 2008
Отчёт EAC об извлечении, выполненном 11. мая 2009, 13:12
Reverend Beat-Man and the Un-believers / Get On Your Knees
Дисковод: Optiarc DVD RW AD-7191S Adapter: 1 ID: 0
Режим чтения : ДостоверностьИспользование точного потока : ДаОтключение кэша аудио : ДаИспользование указателей C2 : Нет
Коррекция смещения при чтении : 6Способность читать области Lead-in и Lead-out : НетЗаполнение пропущенных сэмплов тишиной : ДаУдаление блоков с тишиной в начале и конце : НетПри вычислениях CRC использовались нулевые сэмплы : ДаИнтерфейс : Встроенный Win32-интерфейс для Win NT/2000
Выходной формат : Пользовательский кодировщикВыбранный битрейт : 768 kBit/sКачество : ВысокийДобавление ID3-тэга : НетУтилита сжатия : d:\Programs\Exact Audio Copy\FLAC\FLAC.EXEДополнительные параметры : -6 -V -T "ARTIST=%a" -T "TITLE=%t" -T "ALBUM=%g" -T "DATE=%y" -T "TRACKNUMBER=%n" -T "GENRE=%m" -T "COMMENT=%e" %s -o %d
TOC извлечённого CD
Трек | Старт | Длительность | Начальный сектор | Конечный сектор --------------------------------------------------------------------- 1 | 0:00.00 | 2:10.06 | 0 | 9755 2 | 2:10.06 | 3:34.15 | 9756 | 25820 3 | 5:44.21 | 2:51.34 | 25821 | 38679 4 | 8:35.55 | 2:07.20 | 38680 | 48224 5 | 10:43.00 | 3:16.02 | 48225 | 62926 6 | 13:59.02 | 1:57.48 | 62927 | 71749 7 | 15:56.50 | 2:43.49 | 71750 | 84023 8 | 18:40.24 | 3:08.62 | 84024 | 98185 9 | 21:49.11 | 2:27.58 | 98186 | 109268 10 | 24:16.69 | 3:08.55 | 109269 | 123423 11 | 27:25.49 | 2:59.04 | 123424 | 136852 12 | 30:24.53 | 2:20.73 | 136853 | 147425 13 | 32:45.51 | 1:40.31 | 147426 | 154956
Характеристики диапазона извлечения и сообщения об ошибках
Выбранный диапазон
Имя файла C:\Documents and Settings\Eddie\Рабочий стол\lossless_rip\Reverend Beat-Man and the Un-believers - Get On Your Knees.wav
Пиковый уровень 98.1 % Качество диапазона 99.9 % CRC теста F4D99473 CRC копии F4D99473 Копирование... OK
Ошибок не произошло
AccurateRip: сводка
Трек 1 точность не определена (достоверность 2) [632DECEF], AccurateRip вернул [6B943FF5]Трек 2 точность не определена (достоверность 2) [82F62DAD], AccurateRip вернул [38E8B7E4]Трек 3 точность не определена (достоверность 2) [E70DBCB2], AccurateRip вернул [41F3F840]Трек 4 точность не определена (достоверность 2) [F80D4E76], AccurateRip вернул [E5B8DCEA]Трек 5 точность не определена (достоверность 2) [4A8A1BA1], AccurateRip вернул [47EB2779]Трек 6 точность не определена (достоверность 2) [7ECC799D], AccurateRip вернул [19E96ED6]Трек 7 точность не определена (достоверность 2) [F3A6E1BD], AccurateRip вернул [C31DA3E0]Трек 8 точность не определена (достоверность 2) [1CAC1DAE], AccurateRip вернул [359A7955]Трек 9 точность не определена (достоверность 2) [EBCFD965], AccurateRip вернул [25CF5366]Трек 10 точность не определена (достоверность 2) [E3184561], AccurateRip вернул [F0429457]Трек 11 точность не определена (достоверность 2) [B7C8B370], AccurateRip вернул [96A66C42]Трек 12 точность не определена (достоверность 2) [875E89F3], AccurateRip вернул [9EFC1F08]Трек 13 точность не определена (достоверность 2) [2642350A], AccurateRip вернул [F8900DDE]
Ни один трек не прошёл проверки на точностьВ вашей базе может быть иной вариант штамповки диска
Конец отчёта

Содержание индексной карты (.CUE)

REM GENRE "Rock & Roll"REM DATE 2001REM DISCID AC08120DREM COMMENT "ExactAudioCopy v0.99pb4"PERFORMER "Reverend Beat-Man and the Un-believers"TITLE "Get On Your Knees"FILE "Reverend Beat-Man and the Un-believers - Get On Your Knees.flac" WAVE  TRACK 01 AUDIO    TITLE "get on your knees"    PERFORMER "Reverend Beat-Man and the Un-believers"    INDEX 01 00:00:00  TRACK 02 AUDIO    TITLE "come back lord"    PERFORMER "Reverend Beat-Man and the Un-believers"    INDEX 01 02:10:06  TRACK 03 AUDIO    TITLE "back in hell"    PERFORMER "Reverend Beat-Man and the Un-believers"    INDEX 01 05:44:21  TRACK 04 AUDIO    TITLE "how far can you go"    PERFORMER "Reverend Beat-Man and the Un-believers"    INDEX 01 08:35:55  TRACK 05 AUDIO    TITLE "save my soul from hell"    PERFORMER "Reverend Beat-Man and the Un-believers"    INDEX 01 10:43:00  TRACK 06 AUDIO    TITLE "they ring the bells for me"    PERFORMER "Reverend Beat-Man and the Un-believers"    INDEX 01 13:59:02  TRACK 07 AUDIO    TITLE "the lord is comming back"    PERFORMER "Reverend Beat-Man and the Un-believers"    INDEX 01 15:56:50  TRACK 08 AUDIO    TITLE "oh lord!"    PERFORMER "Reverend Beat-Man and the Un-believers"    INDEX 01 18:40:24  TRACK 09 AUDIO    TITLE "you don't have to do it"    PERFORMER "Reverend Beat-Man and the Un-believers"    INDEX 01 21:49:11  TRACK 10 AUDIO    TITLE "fuck you jesus fuck you oh lord"    PERFORMER "Reverend Beat-Man and the Un-believers"    INDEX 01 24:16:69  TRACK 11 AUDIO    TITLE "show me how"    PERFORMER "Reverend Beat-Man and the Un-believers"    INDEX 01 27:25:49  TRACK 12 AUDIO    TITLE "you don't know"    PERFORMER "Reverend Beat-Man and the Un-believers"    INDEX 01 30:24:53  TRACK 13 AUDIO    TITLE "popcorn up your arse"    PERFORMER "Reverend Beat-Man and the Un-believers"    INDEX 01 32:45:51

Лог проверки качества

AUDIOCHECKER v2.0 beta (build 457) - by Dester - opdester@freemail.hu~~~~~~~~~~~~~~~~~~~~~~~~~~~~~~~~~~-=== DO NOT EDIT THIS FILE! ===-
Path: ...\Reverend Beat-Man & The Un-believers - 2001 - Get On Your Knees
1 -=- Reverend Beat-Man and the Un-believers - Get On Your Knees.flac -=- CDDA (99%)
179075524

Album info

Reverend Beat Man is a Gospel-Trash preacher. He got his musical inspiration from his father who used to listen to Swiss Yodel music, and also on his own, listening to the BBC1, where they had a Rock'n'roll show, and the Swiss radio DRS1 where they had a punk and wild rock show. In the first part of his career, he was a singing-wrestler answering to the name of Lighting Beat Man. The character started to take more and more possession of his personnality, so much so that he almost died. Then he had a vision and saw a light: he saw Robert Johnson and Screamin' Jay Hawkins bring him back to life and want to help him take the right way on his street to Rock'n'roll. They told him to preach the Story both of Primitive Rock and Gospel Trash. Reverend Beat Man is there to meet you. The song "Save my soul from hell" for example, tells the story of a guy who first killed his best friend, then went to his sister and cut her in two...then he had to go to prison, and there turned into a homosexual and had a love affair with the Director of the prison...so they let him out on the world...Right when he came out, he bought himself a 45 magnum, then went home and killed his father as well as everything that was moving, and then finally killed himself. So come by! Don't hesitate, confess your sins to the Reverend Beat Man, who features on stage Scarlette Fever, this gorgeous dancer that will show you the way to get into the Voodoo Burlesque Trance.
-
Темные силы не дремлют и по-прежнему питают нездоровую симпатию к исполнителям блюза и рок-н-ролла в его первобытных формах. Правда, в Соединенных Штатах Америки, среди политкорректных матерщинников из числа "новых голых" металлистов, им последнее время стало совершенно нечего делать. А посему теперь нечисть собирается на свои шабаши в маленькой чистенькой Швейцарии. Туда их привлекают, как недавно выяснилось, не только совершенно невероятные спейс-блэкстеры из Samael, но и не менее безбашенный маньяк псайхобилли и головорез от ритм-н-блюза - Преподобный Бит-Мэн (Reverend Beat-Man) и банда его маниакальных приспешников под названием The Un-Believers.
Рокабилли, ритм-н-блюза и гаражного рока с привкусом какого-то кухонного психоделического авангарда в музыке этого сумасшедшего коллектива примерно поровну. Рваные риффовые номера вроде "How Far Can You Do" сделали бы честь самим Stooges. Губной гармонике Фуззи Дж. Батлера (Fuzzy J. Butler) в "Save My Soul From Hell" вторят дешевенькие любительские синтезаторы Брата Яноша (Brother Janoch). В "The Lord Is Comming Back", извращенческой пародии на госпел, его расчески создают эффект игры настоящего духового оркестра. Второй клавишник, Джерри Мор (Jerry Mohr), где-то разжился целым церковным органом , но также не прочь взлабнуть буги на традиционном ф-но ("They Ring The Bells For Me"). Баса в группе не предусмотрено вовсе, а за ударные отвечает некий Гринго Старр (Gringo Starr). Смешно.
Не стоит так же забывать и о такой необходимой детали всякого приличного шабаша, как (да-да!) самое настоящее богослужение, только выдержанное в шутовских, балаганных тонах. Кульминацией альбома, вне всякого сомнения, является эпическое сочинение "Oh Lord!", полное припадочных скороговорок типа "господу-богу-помолимся-товарищ-генерал!". Сразу почему-то вспоминается финал старого фильма "Rock-N-Roll Circus" и пляски в плюшевых рясах и поролоновых тиарах под роллинговскую "Salt Of The Earth".
Традиции милой насмешки над закостеневшими церковными ритуалами живы, и это хорошо. Во всяком случае, добродушные опусы Un-Believers обладают куда большей убойной силой, нежели истерические выходки фриков из Marilyn Manson и Cradle Of Filth. Кроме того, выбранный Бит-Мэном и его бандой для своих "проповедей" музыкальный язык уже давно неподвластен капризам моды. А это совсем здорово.
05.02.2004, Дмитрий БЕБЕНИН Zvuki.ru
2006 - Your Favourite Position Is On Your KneesReverend Beat-Man & The Church Of Herpes / Your Favourite Position Is On Your Knees- Label: Voodoo Rhythm
Catalog#: VRCD28
Продолжительность: 00:37:39
Трэклист:
01. I Don`t Care [04:31]
02. Bad Treatment [03:21]
03. Seven Days [01:29]
04. Home [04:16]
05. Blue Suede Shoes [01:08]
06. Prophecy [03:09]
07. Faith, Hope, Love [05:33]
08. Move [01:33]
09. Us! [04:43]
10. A Letter [04:55]
11. Higher [02:56]-Credits ▼
Background Vocals, Electronics, Kettledrum, Field Recordings – Curate Von Wurstfinger
Electronics – Reverend Beat-Man (tracks: 8)
Organ, Harmonium, Keyboard, Harp – Suffragan Z. Roger
Rhythms, Effects, Electronics – Friar Blind Doc
Tapeloops, Turntables, Noises – Soeur Hess
Vocals – Reverend Beat-Man
Voice – Hope Urban (tracks: 7)

Notes ▼
Recordings made in the church 2000-2005-Благодарим брата bysh-

Лог создания рипа

Exact Audio Copy V0.99 prebeta 5 from 4. May 2009
EAC extraction logfile from 30. June 2010, 20:42
Reverend Beat-Man & The Church Of Herpes / Your Favourite Position Is On Your Knees
Used drive : _NEC DVD_RW ND-3540A Adapter: 1 ID: 0
Read mode : SecureUtilize accurate stream : YesDefeat audio cache : YesMake use of C2 pointers : No
Read offset correction : 48Overread into Lead-In and Lead-Out : NoFill up missing offset samples with silence : YesDelete leading and trailing silent blocks : NoNull samples used in CRC calculations : YesUsed interface : Native Win32 interface for Win NT & 2000
Used output format : User Defined EncoderSelected bitrate : 128 kBit/sQuality : HighAdd ID3 tag : NoCommand line compressor : C:\Program Files\Exact Audio Copy\Flac\flac.exeAdditional command line options : -8 -V -T "ARTIST=%a" -T "TITLE=%t" -T "ALBUM=%g" -T "DATE=%y" -T "TRACKNUMBER=%n" -T "GENRE=%m" -T "COMMENT=EAC FLAC -8" %s
TOC of the extracted CD
Track | Start | Length | Start sector | End sector --------------------------------------------------------- 1 | 0:00.00 | 4:31.65 | 0 | 20389 2 | 4:31.65 | 3:21.59 | 20390 | 35523 3 | 7:53.49 | 1:29.20 | 35524 | 42218 4 | 9:22.69 | 4:16.16 | 42219 | 61434 5 | 13:39.10 | 1:08.26 | 61435 | 66560 6 | 14:47.36 | 3:09.27 | 66561 | 80762 7 | 17:56.63 | 5:33.05 | 80763 | 105742 8 | 23:29.68 | 1:33.33 | 105743 | 112750 9 | 25:03.26 | 4:43.60 | 112751 | 134035 10 | 29:47.11 | 4:55.71 | 134036 | 156231 11 | 34:43.07 | 2:56.53 | 156232 | 169484
Range status and errors
Selected range
Filename D:\Wave.Out\Reverend Beat-Man & The Church Of Herpes - Your Favourite Position Is On Your Knees (2006)\Reverend Beat-Man & The Church Of Herpes - Your Favourite Position Is On Your Knees.wav
Peak level 99.8 % Range quality 100.0 % Test CRC 0F19DF07 Copy CRC 0F19DF07 Copy OK
No errors occurred
AccurateRip summary
Track 1 not present in databaseTrack 2 not present in databaseTrack 3 not present in databaseTrack 4 not present in databaseTrack 5 not present in databaseTrack 6 not present in databaseTrack 7 not present in databaseTrack 8 not present in databaseTrack 9 not present in databaseTrack 10 not present in databaseTrack 11 not present in database
None of the tracks are present in the AccurateRip database
End of status report

Содержание индексной карты (.CUE)

REM DATE 2006REM DISCID 9B08D30BREM COMMENT "ExactAudioCopy v0.99pb5"PERFORMER "Reverend Beat-Man & The Church Of Herpes"TITLE "Your Favourite Position Is On Your Knees"FILE "Reverend Beat-Man & The Church Of Herpes - Your Favourite Position Is On Your Knees.flac" WAVE  TRACK 01 AUDIO    TITLE "I Don`t Care"    PERFORMER "Reverend Beat-Man & The Church Of Herpes"    FLAGS DCP    INDEX 01 00:00:00  TRACK 02 AUDIO    TITLE "Bad Treatment"    PERFORMER "Reverend Beat-Man & The Church Of Herpes"    FLAGS DCP    INDEX 01 04:31:65  TRACK 03 AUDIO    TITLE "Seven Days"    PERFORMER "Reverend Beat-Man & The Church Of Herpes"    FLAGS DCP    INDEX 01 07:53:49  TRACK 04 AUDIO    TITLE "Home"    PERFORMER "Reverend Beat-Man & The Church Of Herpes"    FLAGS DCP    INDEX 01 09:22:69  TRACK 05 AUDIO    TITLE "Blue Suede Shoes"    PERFORMER "Reverend Beat-Man & The Church Of Herpes"    FLAGS DCP    INDEX 01 13:39:10  TRACK 06 AUDIO    TITLE "Prophecy"    PERFORMER "Reverend Beat-Man & The Church Of Herpes"    FLAGS DCP    INDEX 01 14:47:36  TRACK 07 AUDIO    TITLE "Faith, Hope, Love"    PERFORMER "Reverend Beat-Man & The Church Of Herpes"    FLAGS DCP    INDEX 01 17:56:63  TRACK 08 AUDIO    TITLE "Move"    PERFORMER "Reverend Beat-Man & The Church Of Herpes"    FLAGS DCP    INDEX 01 23:29:68  TRACK 09 AUDIO    TITLE "Us! "    PERFORMER "Reverend Beat-Man & The Church Of Herpes"    FLAGS DCP    INDEX 01 25:03:26  TRACK 10 AUDIO    TITLE "A Letter"    PERFORMER "Reverend Beat-Man & The Church Of Herpes"    FLAGS DCP    INDEX 01 29:47:11  TRACK 11 AUDIO    TITLE "Higher"    PERFORMER "Reverend Beat-Man & The Church Of Herpes"    FLAGS DCP    INDEX 01 34:43:07

Лог проверки качества

AUDIOCHECKER v2.0 beta (build 457) - by Dester - opdester@freemail.hu~~~~~~~~~~~~~~~~~~~~~~~~~~~~~~~~~~
Начато: воскресенье, 27. 03. 2011. - 1:02.50Найдено файлов: 1
1 -===- D:\Downloads\Reverend Beat-Man & The Church Of Herpes- 2006 - Your Favourite Position Is On Your Knees\Reverend Beat-Man & The Church Of Herpes - Your Favourite Position Is On Your Knees.flac Извлечение успешно выполнено Заключение: этот трек - CDDA с вероятностью 100% Временный файл удалён.
Завершено: воскресенье, 27. 03. 2011. - 1:07.23 (Время операции: 0:04.33)

Tau Analizer

2007 - Surreal Folk Blues Gospel Trash Volume 1Reverend Beat-Man / Surreal Folk Blues Gospel Trash Volume 1- Label: Voodoo Rhythm Records
Catalog#: VRCD40
Продолжительность: 00:35:17
Трэклист:
01. The Clown Of The Town
02. I Belong To You
03. I'm Happy
04. Coco Grace
05. Jesus Christ Twist
06. Our Girls (Studio Version)
07. Another Day Another Live (Studio)
08. No Hope
09. I Wanna Know
10. One Fine Day
11. Meine Kleine Russin
12. The Beat-Man Way-Credits ▼
Mastered By – Dan Suter
Written-By, Vocals, Guitar – Reverend Beat-Man
-Благодарим брата stlth-

Лог создания рипа

Exact Audio Copy V1.0 beta 3 from 29. August 2011
EAC extraction logfile from 6. May 2012, 12:11
Reverend Beat-Man / Surreal Folk Blues Gospel Trash Volume 1
Used drive : ASUS DRW-2014S1 Adapter: 0 ID: 2
Read mode : SecureUtilize accurate stream : YesDefeat audio cache : YesMake use of C2 pointers : No
Read offset correction : 6Overread into Lead-In and Lead-Out : NoFill up missing offset samples with silence : YesDelete leading and trailing silent blocks : NoNull samples used in CRC calculations : YesUsed interface : Installed external ASPI interfaceGap handling : Appended to previous track
Used output format : User Defined EncoderSelected bitrate : 1024 kBit/sQuality : HighAdd ID3 tag : NoCommand line compressor : C:\Program Files\Exact Audio Copy\Flac\flac.exeAdditional command line options : -8 -V -T "ARTIST=%artist%" -T "TITLE=%title%" -T "ALBUM=%albumtitle%" -T "DATE=%year%" -T "TRACKNUMBER=%tracknr%" -T "GENRE=%genre%" -T "PERFORMER=%albuminterpret%" -T "COMPOSER=%composer%" %haslyrics%--tag-from-file=LYRICS="%lyricsfile%"%haslyrics% -T "ALBUMARTIST=%albumartist%" -T "DISCNUMBER=%cdnumber%" -T "TOTALDISCS=%totalcds%" -T "TOTALTRACKS=%numtracks%" -T "COMMENT=%comment%" %source% -o %dest%
TOC of the extracted CD
Track | Start | Length | Start sector | End sector --------------------------------------------------------- 1 | 0:00.00 | 2:36.49 | 0 | 11748 2 | 2:36.49 | 2:47.48 | 11749 | 24321 3 | 5:24.22 | 3:31.22 | 24322 | 40168 4 | 8:55.44 | 1:43.55 | 40169 | 47948 5 | 10:39.24 | 3:17.51 | 47949 | 62774 6 | 13:57.00 | 2:14.51 | 62775 | 72875 7 | 16:11.51 | 2:02.60 | 72876 | 82085 8 | 18:14.36 | 2:30.54 | 82086 | 93389 9 | 20:45.15 | 1:10.19 | 93390 | 98658 10 | 21:55.34 | 3:43.65 | 98659 | 115448 11 | 25:39.24 | 2:43.66 | 115449 | 127739 12 | 28:23.15 | 6:54.18 | 127740 | 158807
Track 1
Filename I:\Музыка\lossless\дубли фирм.CD\Reverend Beat-Man - Surreal Folk Blues Gospel Trash (2007)\01 - The Clown Of The Town.wav
Pre-gap length 0:00:02.00
Peak level 99.6 % Extraction speed 4.0 X Track quality 100.0 % Test CRC D3F904F9 Copy CRC D3F904F9 Track not present in AccurateRip database Copy OK
Track 2
Filename I:\Музыка\lossless\дубли фирм.CD\Reverend Beat-Man - Surreal Folk Blues Gospel Trash (2007)\02 - I Belong To You.wav
Peak level 99.6 % Extraction speed 3.3 X Track quality 99.9 % Test CRC DCFA3B4A Copy CRC DCFA3B4A Track not present in AccurateRip database Copy OK
Track 3
Filename I:\Музыка\lossless\дубли фирм.CD\Reverend Beat-Man - Surreal Folk Blues Gospel Trash (2007)\03 - I'm Happy.wav
Peak level 99.6 % Extraction speed 4.9 X Track quality 100.0 % Test CRC 9C9BEB1D Copy CRC 9C9BEB1D Track not present in AccurateRip database Copy OK
Track 4
Filename I:\Музыка\lossless\дубли фирм.CD\Reverend Beat-Man - Surreal Folk Blues Gospel Trash (2007)\04 - Coco Grace.wav
Peak level 99.6 % Extraction speed 4.6 X Track quality 100.0 % Test CRC D720D3DB Copy CRC D720D3DB Track not present in AccurateRip database Copy OK
Track 5
Filename I:\Музыка\lossless\дубли фирм.CD\Reverend Beat-Man - Surreal Folk Blues Gospel Trash (2007)\05 - Jesus Christ Twist.wav
Peak level 99.6 % Extraction speed 5.4 X Track quality 100.0 % Test CRC BA294A64 Copy CRC BA294A64 Track not present in AccurateRip database Copy OK
Track 6
Filename I:\Музыка\lossless\дубли фирм.CD\Reverend Beat-Man - Surreal Folk Blues Gospel Trash (2007)\06 - Our Girls (Studio Version).wav
Peak level 99.6 % Extraction speed 5.2 X Track quality 100.0 % Test CRC 3F38F04B Copy CRC 3F38F04B Track not present in AccurateRip database Copy OK
Track 7
Filename I:\Музыка\lossless\дубли фирм.CD\Reverend Beat-Man - Surreal Folk Blues Gospel Trash (2007)\07 - Another Day Another Live (Studio).wav
Peak level 99.6 % Extraction speed 3.8 X Track quality 99.9 % Test CRC 0B34D253 Copy CRC 0B34D253 Track not present in AccurateRip database Copy OK
Track 8
Filename I:\Музыка\lossless\дубли фирм.CD\Reverend Beat-Man - Surreal Folk Blues Gospel Trash (2007)\08 - No Hope.wav
Peak level 99.6 % Extraction speed 4.2 X Track quality 99.9 % Test CRC 9FE605CB Copy CRC 9FE605CB Track not present in AccurateRip database Copy OK
Track 9
Filename I:\Музыка\lossless\дубли фирм.CD\Reverend Beat-Man - Surreal Folk Blues Gospel Trash (2007)\09 - I Wanna Know.wav
Peak level 99.6 % Extraction speed 4.4 X Track quality 100.0 % Test CRC ECBC3099 Copy CRC ECBC3099 Track not present in AccurateRip database Copy OK
Track 10
Filename I:\Музыка\lossless\дубли фирм.CD\Reverend Beat-Man - Surreal Folk Blues Gospel Trash (2007)\10 - One Fine Day.wav
Peak level 99.1 % Extraction speed 6.4 X Track quality 100.0 % Test CRC F5876867 Copy CRC F5876867 Track not present in AccurateRip database Copy OK
Track 11
Filename I:\Музыка\lossless\дубли фирм.CD\Reverend Beat-Man - Surreal Folk Blues Gospel Trash (2007)\11 - Meine Kleine Russin.wav
Peak level 96.5 % Extraction speed 6.2 X Track quality 100.0 % Test CRC 2A028E77 Copy CRC 2A028E77 Track not present in AccurateRip database Copy OK
Track 12
Filename I:\Музыка\lossless\дубли фирм.CD\Reverend Beat-Man - Surreal Folk Blues Gospel Trash (2007)\12 - The Beat-Man Way.wav
Peak level 99.6 % Extraction speed 7.1 X Track quality 100.0 % Test CRC 030B6DD8 Copy CRC 030B6DD8 Track not present in AccurateRip database Copy OK
None of the tracks are present in the AccurateRip database
No errors occurred
End of status report
---- CUETools DB Plugin V2.1.3
[CTDB TOCID: 4271Zf47nNyo1.XXMYXnMAlHsV0-] disk not present in database, Submit result: database access error: The operation has timed out
End of status report

Содержание индексной карты (.CUE)

REM GENRE AlternativeREM DATE 2007REM DISCID 9E08450CREM COMMENT "ExactAudioCopy v1.0b3"PERFORMER "Reverend Beat-Man"TITLE "Surreal Folk Blues Gospel Trash Volume 1"FILE "01 - The Clown Of The Town.wav" WAVE  TRACK 01 AUDIO    TITLE "The Clown Of The Town"    PERFORMER "Reverend Beat-Man"    INDEX 01 00:00:00FILE "02 - I Belong To You.wav" WAVE  TRACK 02 AUDIO    TITLE "I Belong To You"    PERFORMER "Reverend Beat-Man"    INDEX 01 00:00:00FILE "03 - I'm Happy.wav" WAVE  TRACK 03 AUDIO    TITLE "I'm Happy"    PERFORMER "Reverend Beat-Man"    INDEX 01 00:00:00FILE "04 - Coco Grace.wav" WAVE  TRACK 04 AUDIO    TITLE "Coco Grace"    PERFORMER "Reverend Beat-Man"    INDEX 01 00:00:00FILE "05 - Jesus Christ Twist.wav" WAVE  TRACK 05 AUDIO    TITLE "Jesus Christ Twist"    PERFORMER "Reverend Beat-Man"    INDEX 01 00:00:00FILE "06 - Our Girls (Studio Version).wav" WAVE  TRACK 06 AUDIO    TITLE "Our Girls (Studio Version)"    PERFORMER "Reverend Beat-Man"    INDEX 01 00:00:00FILE "07 - Another Day Another Live (Studio).wav" WAVE  TRACK 07 AUDIO    TITLE "Another Day Another Live (Studio)"    PERFORMER "Reverend Beat-Man"    INDEX 01 00:00:00FILE "08 - No Hope.wav" WAVE  TRACK 08 AUDIO    TITLE "No Hope"    PERFORMER "Reverend Beat-Man"    INDEX 01 00:00:00FILE "09 - I Wanna Know.wav" WAVE  TRACK 09 AUDIO    TITLE "I Wanna Know"    PERFORMER "Reverend Beat-Man"    INDEX 01 00:00:00FILE "10 - One Fine Day.wav" WAVE  TRACK 10 AUDIO    TITLE "One Fine Day"    PERFORMER "Reverend Beat-Man"    INDEX 01 00:00:00FILE "11 - Meine Kleine Russin.wav" WAVE  TRACK 11 AUDIO    TITLE "Meine Kleine Russin"    PERFORMER "Reverend Beat-Man"    INDEX 01 00:00:00FILE "12 - The Beat-Man Way.wav" WAVE  TRACK 12 AUDIO    TITLE "The Beat-Man Way"    PERFORMER "Reverend Beat-Man"    INDEX 01 00:00:00

Лог проверки качества

AUDIOCHECKER v2.0 beta (build 457) - by Dester - opdester@freemail.hu~~~~~~~~~~~~~~~~~~~~~~~~~~~~~~~~~~-=== DO NOT EDIT THIS FILE! ===-
Path: ...\Reverend Beat-Man - Surreal Folk Blues Gospel Trash Volume 1 (2007)
01 -=- 01 - The Clown Of The Town.flac -=- CDDA (100%)02 -=- 02 - I Belong To You.flac -=- CDDA (100%)03 -=- 03 - I'm Happy.flac -=- CDDA (100%)04 -=- 04 - Coco Grace.flac -=- CDDA (62%)05 -=- 05 - Jesus Christ Twist.flac -=- CDDA (100%)06 -=- 06 - Our Girls (Studio Version).flac -=- CDDA (100%)07 -=- 07 - Another Day Another Live (Studio).flac -=- CDDA (99%)08 -=- 08 - No Hope.flac -=- CDDA (100%)09 -=- 09 - I Wanna Know.flac -=- CDDA (100%)10 -=- 10 - One Fine Day.flac -=- CDDA (100%)11 -=- 11 - Meine Kleine Russin.flac -=- MPEG (100%)12 -=- 12 - The Beat-Man Way.flac -=- CDDA (100%)
Summary 88,42% CDDA
194971892
2007 - Surreal Folk Blues Gospel Trash Volume 2Reverend Beat-Man / Surreal Folk Blues Gospel Trash Volume 2- Label: Voodoo Rhythm Records
Catalog#: VRCD41
Продолжительность: 00:35:58
Трэклист:
01. Letter To Myself
02. I See The Light
03. Lonesome And Sad
04. Blue Moon Of Kentucky
05. I Want You Feel
06. Another Day Another Life
07. I've Got The Devil Inside
08. I'm Over With You
09. Our Girls (Demo)
10. Don't Stop To Dance
11. Jesus
12. The Swiss Army Knife-Credits ▼
Mastered By – Dan Suter
Written-By, Vocals, Guitar – Reverend Beat-Man
-Благодарим брата stlth-

Лог создания рипа

Exact Audio Copy V1.0 beta 3 from 29. August 2011
EAC extraction logfile from 6. May 2012, 12:40
Reverend Beat-Man / Surreal Folk Blues Gospel Trash Volume 2
Used drive : ASUS DRW-2014S1 Adapter: 0 ID: 2
Read mode : SecureUtilize accurate stream : YesDefeat audio cache : YesMake use of C2 pointers : No
Read offset correction : 6Overread into Lead-In and Lead-Out : NoFill up missing offset samples with silence : YesDelete leading and trailing silent blocks : NoNull samples used in CRC calculations : YesUsed interface : Installed external ASPI interfaceGap handling : Appended to previous track
Used output format : User Defined EncoderSelected bitrate : 1024 kBit/sQuality : HighAdd ID3 tag : NoCommand line compressor : C:\Program Files\Exact Audio Copy\Flac\flac.exeAdditional command line options : -8 -V -T "ARTIST=%artist%" -T "TITLE=%title%" -T "ALBUM=%albumtitle%" -T "DATE=%year%" -T "TRACKNUMBER=%tracknr%" -T "GENRE=%genre%" -T "PERFORMER=%albuminterpret%" -T "COMPOSER=%composer%" %haslyrics%--tag-from-file=LYRICS="%lyricsfile%"%haslyrics% -T "ALBUMARTIST=%albumartist%" -T "DISCNUMBER=%cdnumber%" -T "TOTALDISCS=%totalcds%" -T "TOTALTRACKS=%numtracks%" -T "COMMENT=%comment%" %source% -o %dest%
TOC of the extracted CD
Track | Start | Length | Start sector | End sector --------------------------------------------------------- 1 | 0:00.00 | 1:49.47 | 0 | 8221 2 | 1:49.47 | 4:29.22 | 8222 | 28418 3 | 6:18.69 | 3:14.36 | 28419 | 43004 4 | 9:33.30 | 2:19.74 | 43005 | 53503 5 | 11:53.29 | 3:17.50 | 53504 | 68328 6 | 15:11.04 | 2:02.40 | 68329 | 77518 7 | 17:13.44 | 2:06.71 | 77519 | 87039 8 | 19:20.40 | 2:23.15 | 87040 | 97779 9 | 21:43.55 | 2:24.53 | 97780 | 108632 10 | 24:08.33 | 2:48.12 | 108633 | 121244 11 | 26:56.45 | 1:52.42 | 121245 | 129686 12 | 28:49.12 | 7:09.20 | 129687 | 161881
Track 1
Filename I:\Музыка\lossless\дубли фирм.CD\Reverend Beat-Man - Surreal Folk Blues Gospel Trash Volume 2\01 - Letter To Myself.wav
Pre-gap length 0:00:02.00
Peak level 99.6 % Extraction speed 4.0 X Track quality 100.0 % Test CRC FA9D6D28 Copy CRC FA9D6D28 Accurately ripped (confidence 1) [A340B4B8] (AR v1) Copy OK
Track 2
Filename I:\Музыка\lossless\дубли фирм.CD\Reverend Beat-Man - Surreal Folk Blues Gospel Trash Volume 2\02 - I See The Light.wav
Peak level 99.6 % Extraction speed 5.1 X Track quality 100.0 % Test CRC 7C091C6C Copy CRC 7C091C6C Accurately ripped (confidence 1) [A39A2F16] (AR v1) Copy OK
Track 3
Filename I:\Музыка\lossless\дубли фирм.CD\Reverend Beat-Man - Surreal Folk Blues Gospel Trash Volume 2\03 - Lonesome And Sad.wav
Peak level 97.0 % Extraction speed 5.3 X Track quality 100.0 % Test CRC 6971B7EA Copy CRC 6971B7EA Accurately ripped (confidence 1) [A38611E0] (AR v1) Copy OK
Track 4
Filename I:\Музыка\lossless\дубли фирм.CD\Reverend Beat-Man - Surreal Folk Blues Gospel Trash Volume 2\04 - Blue Moon Of Kentucky.wav
Peak level 99.6 % Extraction speed 5.2 X Track quality 100.0 % Test CRC 0FA47BDB Copy CRC 0FA47BDB Accurately ripped (confidence 1) [0DED6D2D] (AR v1) Copy OK
Track 5
Filename I:\Музыка\lossless\дубли фирм.CD\Reverend Beat-Man - Surreal Folk Blues Gospel Trash Volume 2\05 - I Want You Feel.wav
Peak level 97.6 % Extraction speed 5.6 X Track quality 100.0 % Test CRC 0A12A9CB Copy CRC 0A12A9CB Accurately ripped (confidence 1) [A2335CFA] (AR v1) Copy OK
Track 6
Filename I:\Музыка\lossless\дубли фирм.CD\Reverend Beat-Man - Surreal Folk Blues Gospel Trash Volume 2\06 - Another Day Another Life.wav
Peak level 99.6 % Extraction speed 4.5 X Track quality 100.0 % Test CRC 1B0DFBC4 Copy CRC 1B0DFBC4 Accurately ripped (confidence 1) [9F6D69F4] (AR v1) Copy OK
Track 7
Filename I:\Музыка\lossless\дубли фирм.CD\Reverend Beat-Man - Surreal Folk Blues Gospel Trash Volume 2\07 - I've Got The Devil Inside.wav
Peak level 99.6 % Extraction speed 5.7 X Track quality 100.0 % Test CRC 8D284E30 Copy CRC 8D284E30 Accurately ripped (confidence 1) [A00DAC49] (AR v1) Copy OK
Track 8
Filename I:\Музыка\lossless\дубли фирм.CD\Reverend Beat-Man - Surreal Folk Blues Gospel Trash Volume 2\08 - I'm Over With You.wav
Peak level 99.6 % Extraction speed 6.0 X Track quality 100.0 % Test CRC F8F726EC Copy CRC F8F726EC Accurately ripped (confidence 1) [970CFD8E] (AR v1) Copy OK
Track 9
Filename I:\Музыка\lossless\дубли фирм.CD\Reverend Beat-Man - Surreal Folk Blues Gospel Trash Volume 2\09 - Our Girls (Demo).wav
Peak level 99.6 % Extraction speed 6.1 X Track quality 100.0 % Test CRC E965348E Copy CRC E965348E Accurately ripped (confidence 1) [C6B0E980] (AR v1) Copy OK
Track 10
Filename I:\Музыка\lossless\дубли фирм.CD\Reverend Beat-Man - Surreal Folk Blues Gospel Trash Volume 2\10 - Don't Stop To Dance.wav
Peak level 99.6 % Extraction speed 6.4 X Track quality 100.0 % Test CRC 3B0A332F Copy CRC 3B0A332F Accurately ripped (confidence 1) [FA30BB8F] (AR v1) Copy OK
Track 11
Filename I:\Музыка\lossless\дубли фирм.CD\Reverend Beat-Man - Surreal Folk Blues Gospel Trash Volume 2\11 - Jesus.wav
Peak level 99.6 % Extraction speed 4.4 X Track quality 99.9 % Test CRC 3DA43231 Copy CRC 3DA43231 Accurately ripped (confidence 1) [1BE0A9C7] (AR v1) Copy OK
Track 12
Filename I:\Музыка\lossless\дубли фирм.CD\Reverend Beat-Man - Surreal Folk Blues Gospel Trash Volume 2\12 - The Swiss Army Knife.wav
Peak level 99.6 % Extraction speed 6.2 X Track quality 99.9 % Test CRC 402E25B8 Copy CRC 402E25B8 Accurately ripped (confidence 1) [22BDC3EC] (AR v1) Copy OK
All tracks accurately ripped
No errors occurred
End of status report
---- CUETools DB Plugin V2.1.3
[CTDB TOCID: kVX7qnwXG7OFyNef_e9W6ViKZr8-] disk not present in database, Submit result: database access error: The request was aborted: The operation has timed out.

Содержание индексной карты (.CUE)

REM GENRE AlternativeREM DATE 2007REM DISCID 7D086E0CREM COMMENT "ExactAudioCopy v1.0b3"PERFORMER "Reverend Beat-Man"TITLE "Surreal Folk Blues Gospel Trash Volume 2"FILE "01 - Letter To Myself.wav" WAVE  TRACK 01 AUDIO    TITLE "Letter To Myself"    PERFORMER "Reverend Beat-Man"    INDEX 01 00:00:00FILE "02 - I See The Light.wav" WAVE  TRACK 02 AUDIO    TITLE "I See The Light"    PERFORMER "Reverend Beat-Man"    INDEX 01 00:00:00FILE "03 - Lonesome And Sad.wav" WAVE  TRACK 03 AUDIO    TITLE "Lonesome And Sad"    PERFORMER "Reverend Beat-Man"    INDEX 01 00:00:00FILE "04 - Blue Moon Of Kentucky.wav" WAVE  TRACK 04 AUDIO    TITLE "Blue Moon Of Kentucky"    PERFORMER "Reverend Beat-Man"    INDEX 01 00:00:00FILE "05 - I Want You Feel.wav" WAVE  TRACK 05 AUDIO    TITLE "I Want You Feel"    PERFORMER "Reverend Beat-Man"    INDEX 01 00:00:00FILE "06 - Another Day Another Life.wav" WAVE  TRACK 06 AUDIO    TITLE "Another Day Another Life"    PERFORMER "Reverend Beat-Man"    INDEX 01 00:00:00FILE "07 - I've Got The Devil Inside.wav" WAVE  TRACK 07 AUDIO    TITLE "I've Got The Devil Inside"    PERFORMER "Reverend Beat-Man"    INDEX 01 00:00:00FILE "08 - I'm Over With You.wav" WAVE  TRACK 08 AUDIO    TITLE "I'm Over With You"    PERFORMER "Reverend Beat-Man"    INDEX 01 00:00:00FILE "09 - Our Girls (Demo).wav" WAVE  TRACK 09 AUDIO    TITLE "Our Girls (Demo)"    PERFORMER "Reverend Beat-Man"    INDEX 01 00:00:00FILE "10 - Don't Stop To Dance.wav" WAVE  TRACK 10 AUDIO    TITLE "Don't Stop To Dance"    PERFORMER "Reverend Beat-Man"    INDEX 01 00:00:00FILE "11 - Jesus.wav" WAVE  TRACK 11 AUDIO    TITLE "Jesus"    PERFORMER "Reverend Beat-Man"    INDEX 01 00:00:00FILE "12 - The Swiss Army Knife.wav" WAVE  TRACK 12 AUDIO    TITLE "The Swiss Army Knife"    PERFORMER "Reverend Beat-Man"    INDEX 01 00:00:00

Лог проверки качества

AUDIOCHECKER v2.0 beta (build 457) - by Dester - opdester@freemail.hu~~~~~~~~~~~~~~~~~~~~~~~~~~~~~~~~~~-=== DO NOT EDIT THIS FILE! ===-
Path: ...\Reverend Beat-Man - Surreal Folk Blues Gospel Trash Volume 2 (2007)
01 -=- 01 - Letter To Myself.flac -=- CDDA (100%)02 -=- 02 - I See The Light.flac -=- CDDA (100%)03 -=- 03 - Lonesome And Sad.flac -=- CDDA (100%)04 -=- 04 - Blue Moon Of Kentucky.flac -=- CDDA (99%)05 -=- 05 - I Want You Feel.flac -=- CDDA (100%)06 -=- 06 - Another Day Another Life.flac -=- CDDA (94%)07 -=- 07 - I've Got The Devil Inside.flac -=- CDDA (99%)08 -=- 08 - I'm Over With You.flac -=- CDDA (100%)09 -=- 09 - Our Girls (Demo).flac -=- CDDA (100%)10 -=- 10 - Don't Stop To Dance.flac -=- CDDA (100%)11 -=- 11 - Jesus.flac -=- CDDA (100%)12 -=- 12 - The Swiss Army Knife.flac -=- CDDA (94%)
Summary 98,83% CDDA
58775252

2018 - Blues Trash

Label: Voodoo Rhythm
Catalog#: VR108
Продолжительность: 00:41:00
Трэклист:
01. I have enough 02:19
02. i'm not gonna tell you 02:59
03. Today is a beautiful day 03:43
04. I'll do it for you 02:29
05. The white wolf is back in town 04:40
06. But i love you 03:15
07. You're on top 04:11
08. if i knew 02:13
09. Then we all gonna die 03:27
10. Love is simply a dream 03:27
11. Looking right through 03:36
12. Lass uns Liebe machen 04:36-

Лог создания рипа

X Lossless Decoder version 20170729 (150.3)
XLD extraction logfile from 2018-05-14 21:42:14 +0200
Reverend Beat-Man; Reverend Beat-Man & the New Wave / Blues Trash
Used drive : TEAC DV-W28S-V (revision D.0A)Media type : Pressed CD
Ripper mode : XLD Secure RipperDisable audio cache : OK for the drive with a cache less than 1375KiBMake use of C2 pointers : NORead offset correction : 96Max retry count : 20Gap status : Analyzed, Appended (except HTOA)
TOC of the extracted CD Track | Start | Length | Start sector | End sector --------------------------------------------------------- 1 | 00:00:00 | 02:19:10 | 0 | 10434 2 | 02:19:10 | 02:59:23 | 10435 | 23882 3 | 05:18:33 | 03:43:20 | 23883 | 40627 4 | 09:01:53 | 02:29:15 | 40628 | 51817 5 | 11:30:68 | 04:40:13 | 51818 | 72830 6 | 16:11:06 | 03:15:57 | 72831 | 87512 7 | 19:26:63 | 04:11:71 | 87513 | 106408 8 | 23:38:59 | 02:13:25 | 106409 | 116408 9 | 25:52:09 | 03:27:31 | 116409 | 131964 10 | 29:19:40 | 03:27:35 | 131965 | 147524 11 | 32:47:00 | 03:36:46 | 147525 | 163770 12 | 36:23:46 | 04:36:56 | 163771 | 184526
AccurateRip Summary Disc not found in AccurateRip DB.
All Tracks Album gain : -8.12 dB Peak : 0.985687 Statistics Read error : 0 Jitter error (maybe fixed) : 0 Retry sector count : 0 Damaged sector count : 0
Track 01 Filename : /XLD/Reverend Beat-Man; Reverend Beat-Man & the New Wave - Blues Trash (2018) [FLAC]/01 I Have Enough.flac Pre-gap length : 00:02:00
Track gain : -8.26 dB Peak : 0.976074 CRC32 hash (test run) : 12563AF2 CRC32 hash : 12563AF2 CRC32 hash (skip zero) : B1C1C003 AccurateRip v1 signature : D95CA89E AccurateRip v2 signature : 2FAAFC04 ->Track not present in AccurateRip database. Statistics Read error : 0 Jitter error (maybe fixed) : 0 Retry sector count : 0 Damaged sector count : 0
Track 02 Filename : /XLD/Reverend Beat-Man; Reverend Beat-Man & the New Wave - Blues Trash (2018) [FLAC]/02 I'm Not Gonna Tell You.flac
Track gain : -9.93 dB Peak : 0.980835 CRC32 hash (test run) : 4A26F642 CRC32 hash : 4A26F642 CRC32 hash (skip zero) : 12F6F9A8 AccurateRip v1 signature : D714E6FC AccurateRip v2 signature : 320FBF4E ->Track not present in AccurateRip database. Statistics Read error : 0 Jitter error (maybe fixed) : 0 Retry sector count : 0 Damaged sector count : 0
Track 03 Filename : /XLD/Reverend Beat-Man; Reverend Beat-Man & the New Wave - Blues Trash (2018) [FLAC]/03 Today Is A Beautiful Day.flac
Track gain : -7.23 dB Peak : 0.972687 CRC32 hash (test run) : C424A2CD CRC32 hash : C424A2CD CRC32 hash (skip zero) : FB23034A AccurateRip v1 signature : 9CCEB5BF AccurateRip v2 signature : 0BB3AC98 ->Track not present in AccurateRip database. Statistics Read error : 0 Jitter error (maybe fixed) : 0 Retry sector count : 0 Damaged sector count : 0
Track 04 Filename : /XLD/Reverend Beat-Man; Reverend Beat-Man & the New Wave - Blues Trash (2018) [FLAC]/04 I'll Do It For You.flac
Track gain : -7.93 dB Peak : 0.970215 CRC32 hash (test run) : 2C565B63 CRC32 hash : 2C565B63 CRC32 hash (skip zero) : 92A46708 AccurateRip v1 signature : 29E8671E AccurateRip v2 signature : C22643AB ->Track not present in AccurateRip database. Statistics Read error : 0 Jitter error (maybe fixed) : 0 Retry sector count : 0 Damaged sector count : 0
Track 05 Filename : /XLD/Reverend Beat-Man; Reverend Beat-Man & the New Wave - Blues Trash (2018) [FLAC]/05 The White Wolf Is Back In Town.flac
Track gain : -8.18 dB Peak : 0.970276 CRC32 hash (test run) : 46E3E922 CRC32 hash : 46E3E922 CRC32 hash (skip zero) : CA5AC260 AccurateRip v1 signature : 00B963F9 AccurateRip v2 signature : 84BF640B ->Track not present in AccurateRip database. Statistics Read error : 0 Jitter error (maybe fixed) : 0 Retry sector count : 0 Damaged sector count : 0
Track 06 Filename : /XLD/Reverend Beat-Man; Reverend Beat-Man & the New Wave - Blues Trash (2018) [FLAC]/06 But I Love You.flac
Track gain : -3.93 dB Peak : 0.965546 CRC32 hash (test run) : A82C931D CRC32 hash : A82C931D CRC32 hash (skip zero) : DF11358D AccurateRip v1 signature : A1F36148 AccurateRip v2 signature : A1825D13 ->Track not present in AccurateRip database. Statistics Read error : 0 Jitter error (maybe fixed) : 0 Retry sector count : 0 Damaged sector count : 0
Track 07 Filename : /XLD/Reverend Beat-Man; Reverend Beat-Man & the New Wave - Blues Trash (2018) [FLAC]/07 You Are On Top.flac
Track gain : -5.75 dB Peak : 0.974976 CRC32 hash (test run) : 9F2ED9D5 CRC32 hash : 9F2ED9D5 CRC32 hash (skip zero) : 0162AABE AccurateRip v1 signature : 98247C0B AccurateRip v2 signature : AAD06BD5 ->Track not present in AccurateRip database. Statistics Read error : 0 Jitter error (maybe fixed) : 0 Retry sector count : 0 Damaged sector count : 0
Track 08 Filename : /XLD/Reverend Beat-Man; Reverend Beat-Man & the New Wave - Blues Trash (2018) [FLAC]/08 If I Knew.flac
Track gain : -6.36 dB Peak : 0.985687 CRC32 hash (test run) : CAFC2F60 CRC32 hash : CAFC2F60 CRC32 hash (skip zero) : 40073111 AccurateRip v1 signature : CB55B875 AccurateRip v2 signature : 7F8744E0 ->Track not present in AccurateRip database. Statistics Read error : 0 Jitter error (maybe fixed) : 0 Retry sector count : 0 Damaged sector count : 0
Track 09 Filename : /XLD/Reverend Beat-Man; Reverend Beat-Man & the New Wave - Blues Trash (2018) [FLAC]/09 Then We All Gonna Die.flac
Track gain : -7.13 dB Peak : 0.969940 CRC32 hash (test run) : 5EDF4017 CRC32 hash : 5EDF4017 CRC32 hash (skip zero) : 2B25A183 AccurateRip v1 signature : 62217BCE AccurateRip v2 signature : C8626822 ->Track not present in AccurateRip database. Statistics Read error : 0 Jitter error (maybe fixed) : 0 Retry sector count : 0 Damaged sector count : 0
Track 10 Filename : /XLD/Reverend Beat-Man; Reverend Beat-Man & the New Wave - Blues Trash (2018) [FLAC]/10 Love Is Simply A Dream.flac
Track gain : -6.48 dB Peak : 0.970520 CRC32 hash (test run) : 98533BE0 CRC32 hash : 98533BE0 CRC32 hash (skip zero) : 47D2E67B AccurateRip v1 signature : 5A99229C AccurateRip v2 signature : 6D294783 ->Track not present in AccurateRip database. Statistics Read error : 0 Jitter error (maybe fixed) : 0 Retry sector count : 0 Damaged sector count : 0
Track 11 Filename : /XLD/Reverend Beat-Man; Reverend Beat-Man & the New Wave - Blues Trash (2018) [FLAC]/11 Looking Right Through.flac
Track gain : -6.08 dB Peak : 0.971252 CRC32 hash (test run) : 5031CE13 CRC32 hash : 5031CE13 CRC32 hash (skip zero) : 1B3A1682 AccurateRip v1 signature : 87CDA2DC AccurateRip v2 signature : BE758A94 ->Track not present in AccurateRip database. Statistics Read error : 0 Jitter error (maybe fixed) : 0 Retry sector count : 0 Damaged sector count : 0
Track 12 Filename : /XLD/Reverend Beat-Man; Reverend Beat-Man & the New Wave - Blues Trash (2018) [FLAC]/12 Lass Uns Liebe Machen.flac
Track gain : -8.10 dB Peak : 0.974640 CRC32 hash (test run) : A30A72BC CRC32 hash : A30A72BC CRC32 hash (skip zero) : 3EB42932 AccurateRip v1 signature : F861EFCE AccurateRip v2 signature : 1B807889 ->Track not present in AccurateRip database. Statistics Read error : 0 Jitter error (maybe fixed) : 0 Retry sector count : 0 Damaged sector count : 0
No errors occurred
End of status report
-----BEGIN XLD SIGNATURE-----V5_u3w.tfMBq4nhRFswHy_QgNSbNK_Xvt73fa8vDzLbiZTVq_JUR1Wk377d.K6mL3nY3RPQPH1GWxZZ_qxEUCBtHrcRrRA.yNCU0.p4-----END XLD SIGNATURE-----

Содержание индексной карты (.CUE)

TITLE "Blues Trash"PERFORMER "Reverend Beat-Man; Reverend Beat-Man & the New Wave"CATALOG 7640148982788REM GENRE "Garage Rock"REM DATE "2018"REM DISCID 9B099C0CREM REPLAYGAIN_ALBUM_GAIN -8.12 dBREM REPLAYGAIN_ALBUM_PEAK 0.985687FILE "01 I Have Enough.flac" WAVE  TRACK 01 AUDIO    TITLE "I Have Enough"    ISRC CH6131810801    REM REPLAYGAIN_TRACK_GAIN -8.26 dB    REM REPLAYGAIN_TRACK_PEAK 0.976074    INDEX 01 00:00:00FILE "02 I'm Not Gonna Tell You.flac" WAVE  TRACK 02 AUDIO    TITLE "I'm Not Gonna Tell You"    ISRC CH6131810802    REM REPLAYGAIN_TRACK_GAIN -9.93 dB    REM REPLAYGAIN_TRACK_PEAK 0.980835    INDEX 01 00:00:00FILE "03 Today Is A Beautiful Day.flac" WAVE  TRACK 03 AUDIO    TITLE "Today Is A Beautiful Day"    ISRC CH6131810803    REM REPLAYGAIN_TRACK_GAIN -7.23 dB    REM REPLAYGAIN_TRACK_PEAK 0.972687    INDEX 01 00:00:00FILE "04 I'll Do It For You.flac" WAVE  TRACK 04 AUDIO    TITLE "I'll Do It For You"    ISRC CH6131810804    REM REPLAYGAIN_TRACK_GAIN -7.93 dB    REM REPLAYGAIN_TRACK_PEAK 0.970215    INDEX 01 00:00:00FILE "05 The White Wolf Is Back In Town.flac" WAVE  TRACK 05 AUDIO    TITLE "The White Wolf Is Back In Town"    ISRC CH6131810805    REM REPLAYGAIN_TRACK_GAIN -8.18 dB    REM REPLAYGAIN_TRACK_PEAK 0.970276    INDEX 01 00:00:00FILE "06 But I Love You.flac" WAVE  TRACK 06 AUDIO    TITLE "But I Love You"    ISRC CH6131810806    REM REPLAYGAIN_TRACK_GAIN -3.93 dB    REM REPLAYGAIN_TRACK_PEAK 0.965546    INDEX 01 00:00:00FILE "07 You Are On Top.flac" WAVE  TRACK 07 AUDIO    TITLE "You Are On Top"    ISRC CH6131810807    REM REPLAYGAIN_TRACK_GAIN -5.75 dB    REM REPLAYGAIN_TRACK_PEAK 0.974976    INDEX 01 00:00:00FILE "08 If I Knew.flac" WAVE  TRACK 08 AUDIO    TITLE "If I Knew"    ISRC CH6131810808    REM REPLAYGAIN_TRACK_GAIN -6.36 dB    REM REPLAYGAIN_TRACK_PEAK 0.985687    INDEX 01 00:00:00FILE "09 Then We All Gonna Die.flac" WAVE  TRACK 09 AUDIO    TITLE "Then We All Gonna Die"    ISRC CH6131810809    REM REPLAYGAIN_TRACK_GAIN -7.13 dB    REM REPLAYGAIN_TRACK_PEAK 0.969940    INDEX 01 00:00:00FILE "10 Love Is Simply A Dream.flac" WAVE  TRACK 10 AUDIO    TITLE "Love Is Simply A Dream"    ISRC CH6131810810    REM REPLAYGAIN_TRACK_GAIN -6.48 dB    REM REPLAYGAIN_TRACK_PEAK 0.970520    INDEX 01 00:00:00FILE "11 Looking Right Through.flac" WAVE  TRACK 11 AUDIO    TITLE "Looking Right Through"    ISRC CH6131810811    REM REPLAYGAIN_TRACK_GAIN -6.08 dB    REM REPLAYGAIN_TRACK_PEAK 0.971252    INDEX 01 00:00:00FILE "12 Lass Uns Liebe Machen.flac" WAVE  TRACK 12 AUDIO    TITLE "Lass Uns Liebe Machen"    ISRC CH6131810812    REM REPLAYGAIN_TRACK_GAIN -8.10 dB    REM REPLAYGAIN_TRACK_PEAK 0.974640    INDEX 01 00:00:00

Лог проверки качества

fooCDtect - foobar2000 + auCDtect, baralgin.
auCDtect: CD records authenticity detector, version 0.8.2Copyright (c) 2004 Oleg Berngardt. All rights reserved.Copyright (c) 2004 Alexander Djourik. All rights reserved.
mode: 0
=========================================== Track: 01. I Have Enough Quality: CDDA 100%=========================================== Track: 02. I'm Not Gonna Tell You Quality: CDDA 100%=========================================== Track: 03. Today Is A Beautiful Day Quality: CDDA 100%=========================================== Track: 04. I'll Do It For You Quality: CDDA 100%=========================================== Track: 05. The White Wolf Is Back In Town Quality: CDDA 100%=========================================== Track: 06. But I Love You Quality: CDDA 100%=========================================== Track: 07. You Are On Top Quality: CDDA 100%=========================================== Track: 08. If I Knew Quality: CDDA 100%=========================================== Track: 09. Then We All Gonna Die Quality: CDDA 99%=========================================== Track: 10. Love Is Simply A Dream Quality: CDDA 100%=========================================== Track: 11. Looking Right Through Quality: CDDA 100%=========================================== Track: 12. Lass Uns Liebe Machen Quality: CDDA 100%===========================================
-+ 2018 - Blues Trash. Update torrent file, pls-
Вы не можете начинать темы
Вы не можете отвечать на сообщения
Вы не можете редактировать свои сообщения
Вы не можете удалять свои сообщения
Вы не можете голосовать в опросах
Вы не можете прикреплять файлы к сообщениям
Вы можете скачивать файлы
!ВНИМАНИЕ!

Сайт не предоставляет электронные версии произведений, а занимается лишь коллекционированием и каталогизацией ссылок, присылаемых и публикуемых на форуме нашими читателями. Если вы являетесь правообладателем какого-либо представленного материала и не желаете, чтобы ссылка на него находилась в нашем каталоге, свяжитесь с нами, и мы незамедлительно удалим ее. Файлы для обмена на трекере предоставлены пользователями сайта, и администрация не несет ответственности за их содержание. Просьба не заливать файлы, защищенные авторскими правами, а также файлы нелегального содержания!

Искали программы, игры, дополнения, музыка mp3, аниме, аудио книги, журналы? Добро пожаловать на свободный торрент трекер Torrents, у нас можно скачать бесплатно, без смс и регистрации и прочих ограничений лучшие, отборные сборки программ, игр. Скачать торрентом не составит труда даже не опытному пользователю. Раздачи ежедневно обновляются, только лучшие и качественные раздачи, подробные описания и скриншоты. Огромная коллекция программ для работы со звуком, графикой, дизайном, а так же множество плагинов и инструментов к ним с подробной инструкцией и рекомендациями. Прошивки для навигаторов, карты. Разнообразные игры, для Windows, Linux. В коллекцие есть и старые игры любых жанров, Rpg, Action, Shooter, strategy Множество дополнений, модификаций, сценариев для популярных игр в жанре экш, рпг, гонки, стратегии, логические игры. Множество аддонов и сценариев для Microsoft Flight Simulator Большая коллекция книг, учебников. Если нет возможности купить печатное издание - смело скачивайте цифровую версию книги или, быть может, журнала. Не любите читать - можно загрузить бесплатно аудикнигу. Для веб дизайнеров и программистов так же найдется множество специализированного софта, таких как: редакторы с подсветкой, среды программирования, компоненты, системы управления базами данных, разнообразные скрипты и шаблоны. Не так давно у нас появился материал для автолюбителей и владельцев мото - оригинальные и неоригинальные каталоги запчастей, книги и журналы по ремонту и обслуживанию, видеоуроки, статьи по чип тюнингу, прошивкам. Процедура получения контента элементарная, достаточно просто скачать торрент файл и добавить его в загрузку в вашем торрент клиенте. Если у вас нет специального торрент клиента, вы можете его скачать у нас.