(Rock, Rock\'n\'Roll, Rockabilly, Blues, Pop ) [CD] Elvis Presley - Way Down: In The Jungle Room (2CD Set) - 2016 (RCA / Legacy USA), FLAC (image+.cue), lossless 

Цитировать
Elvis Presley - Way Down: In The Jungle Room
Жанр: Rock, Rock'n'Roll, Rockabilly, Blues, Pop
Страна-производитель диска: USA
Год издания диска: 2016
Издатель (лейбл): RCA / Legacy
Номер по каталогу: 88985318102
Страна: USA
Аудио кодек: FLAC (*.flac)
Тип рипа: image+.cue
Битрейт аудио: lossless
Продолжительность: 02:11:30
Источник (релизер): London
Наличие сканов в содержимом раздачи: да
Треклист:

Disc One: The Masters (00:55:19)

01. Way Down 02:39
02. She Thinks I Still Care 03:51
03. Bitter They Are, Harder They Fall 03:19
04. Pledging My Love 02:52
05. For The Heart 03:24
06. Love Coming Down 03:08
07. He'll Have To Go 04:33
08. Blue Eyes Crying In The Rain 03:43
09. Hurt 02:09
10. Never Again 02:53
11. Danny Boy 03:58
12. Solitaire 04:42
13. Moody Blue 02:51
14. It's Easy For You 03:30
15. I'll Never Fall In Love Again 03:46
16. The Last Farewell 04:03

Лог создания рипа

Exact Audio Copy V1.3 from 2. September 2016
EAC extraction logfile from 3. June 2018, 13:06
Elvis Presley / Way Down In The Jungle Room - Disc 01 - The Masters
Used drive : ATAPI iHAS122 C Adapter: 1 ID: 0
Read mode : SecureUtilize accurate stream : YesDefeat audio cache : YesMake use of C2 pointers : No
Read offset correction : 6Overread into Lead-In and Lead-Out : NoFill up missing offset samples with silence : YesDelete leading and trailing silent blocks : NoNull samples used in CRC calculations : YesUsed interface : Native Win32 interface for Win NT & 2000
Used output format : Internal WAV RoutinesSample format : 44.100 Hz; 16 Bit; Stereo
TOC of the extracted CD
Track | Start | Length | Start sector | End sector --------------------------------------------------------- 1 | 0:00.00 | 2:38.39 | 0 | 11888 2 | 2:38.39 | 3:51.22 | 11889 | 29235 3 | 6:29.61 | 3:18.55 | 29236 | 44140 4 | 9:48.41 | 2:51.43 | 44141 | 57008 5 | 12:40.09 | 3:23.40 | 57009 | 72273 6 | 16:03.49 | 3:08.26 | 72274 | 86399 7 | 19:12.00 | 4:32.38 | 86400 | 106837 8 | 23:44.38 | 3:42.68 | 106838 | 123555 9 | 27:27.31 | 2:09.14 | 123556 | 133244 10 | 29:36.45 | 2:52.74 | 133245 | 146218 11 | 32:29.44 | 3:58.22 | 146219 | 164090 12 | 36:27.66 | 4:41.68 | 164091 | 185233 13 | 41:09.59 | 2:50.73 | 185234 | 198056 14 | 44:00.57 | 3:29.40 | 198057 | 213771 15 | 47:30.22 | 3:45.74 | 213772 | 230720 16 | 51:16.21 | 4:02.41 | 230721 | 248911
Range status and errors
Selected range
Filename C:\Users\London\Desktop\Elvis Presley - Way Down In The Jungle Room - Disc 01 - The Masters.wav
Peak level 100.0 % Extraction speed 8.5 X Range quality 100.0 % Test CRC FE6710B9 Copy CRC FE6710B9 Copy OK
No errors occurred
AccurateRip summary
Track 1 cannot be verified as accurate (confidence 57) [A460F562], AccurateRip returned [53A69302] (AR v2)Track 2 cannot be verified as accurate (confidence 57) [A1A72D2C], AccurateRip returned [DC50D703] (AR v2)Track 3 cannot be verified as accurate (confidence 57) [1C47F1D3], AccurateRip returned [B9C603B3] (AR v2)Track 4 cannot be verified as accurate (confidence 57) [EF0617F7], AccurateRip returned [CF11D856] (AR v2)Track 5 cannot be verified as accurate (confidence 57) [C1C408EC], AccurateRip returned [907E45D0] (AR v2)Track 6 cannot be verified as accurate (confidence 57) [307B776B], AccurateRip returned [C86C791C] (AR v2)Track 7 cannot be verified as accurate (confidence 57) [BA85DD7E], AccurateRip returned [5192123F] (AR v2)Track 8 cannot be verified as accurate (confidence 57) [49DDEC16], AccurateRip returned [4E24FB84] (AR v2)Track 9 cannot be verified as accurate (confidence 57) [63ABD651], AccurateRip returned [FD781230] (AR v2)Track 10 cannot be verified as accurate (confidence 57) [83D58BD3], AccurateRip returned [5E341084] (AR v2)Track 11 cannot be verified as accurate (confidence 57) [D97E6F27], AccurateRip returned [824EC49E] (AR v2)Track 12 cannot be verified as accurate (confidence 57) [5063E7FB], AccurateRip returned [0801D63D] (AR v2)Track 13 cannot be verified as accurate (confidence 57) [4F884191], AccurateRip returned [CF8172CB] (AR v2)Track 14 cannot be verified as accurate (confidence 53) [A8DC68CC], AccurateRip returned [318402A3] (AR v2)Track 15 cannot be verified as accurate (confidence 57) [98FF9A40], AccurateRip returned [1D47F53A] (AR v2)Track 16 cannot be verified as accurate (confidence 57) [AAC7A755], AccurateRip returned [D067E113] (AR v2)
No tracks could be verified as accurateYou may have a different pressing from the one(s) in the database
End of status report
---- CUETools DB Plugin V2.1.6
[CTDB TOCID: RZPB7cHupidx2wxdACMLm6CSFu4-] foundSubmit result: RZPB7cHupidx2wxdACMLm6CSFu4- has been confirmedTrack | CTDB Status 1 | (143/143) Accurately ripped 2 | (143/143) Accurately ripped 3 | (143/143) Accurately ripped 4 | (143/143) Accurately ripped 5 | (143/143) Accurately ripped 6 | (143/143) Accurately ripped 7 | (143/143) Accurately ripped 8 | (143/143) Accurately ripped 9 | (143/143) Accurately ripped 10 | (143/143) Accurately ripped 11 | (143/143) Accurately ripped 12 | (143/143) Accurately ripped 13 | (143/143) Accurately ripped 14 | (140/143) Accurately ripped 15 | (141/143) Accurately ripped 16 | (142/143) Accurately ripped
==== Log checksum 26A50E7034541BD4F7AF197C429783E14C50D0FD71C3CBC9CCC6C753D95DC6E3 ====

Содержание индексной карты (.CUE)

REM GENRE OldiesREM DATE 2016REM DISCID ED0CF610REM COMMENT "ExactAudioCopy v1.3"PERFORMER "Elvis Presley"TITLE "Way Down In The Jungle Room - Disc 01 - The Masters"REM COMPOSER ""FILE "Elvis Presley - Way Down In The Jungle Room - Disc 01 - The Masters.flac" WAVE  TRACK 01 AUDIO    TITLE "Way Down"    PERFORMER "Elvis Presley"    REM COMPOSER ""    INDEX 01 00:00:00  TRACK 02 AUDIO    TITLE "She Thinks I Still Care"    PERFORMER "Elvis Presley"    REM COMPOSER ""    INDEX 00 02:38:08    INDEX 01 02:38:39  TRACK 03 AUDIO    TITLE "Bitter They Are, Harder They Fall"    PERFORMER "Elvis Presley"    REM COMPOSER ""    INDEX 01 06:29:61  TRACK 04 AUDIO    TITLE "Pledging My Love"    PERFORMER "Elvis Presley"    REM COMPOSER ""    INDEX 00 09:47:03    INDEX 01 09:48:41  TRACK 05 AUDIO    TITLE "For The Heart"    PERFORMER "Elvis Presley"    REM COMPOSER ""    INDEX 00 12:40:00    INDEX 01 12:40:09  TRACK 06 AUDIO    TITLE "Love Coming Down"    PERFORMER "Elvis Presley"    REM COMPOSER ""    INDEX 00 16:02:58    INDEX 01 16:03:49  TRACK 07 AUDIO    TITLE "He'll Have To Go"    PERFORMER "Elvis Presley"    REM COMPOSER ""    INDEX 00 19:10:67    INDEX 01 19:12:00  TRACK 08 AUDIO    TITLE "Blue Eyes Crying In The Rain"    PERFORMER "Elvis Presley"    REM COMPOSER ""    INDEX 00 23:43:65    INDEX 01 23:44:38  TRACK 09 AUDIO    TITLE "Hurt"    PERFORMER "Elvis Presley"    REM COMPOSER ""    INDEX 00 27:26:17    INDEX 01 27:27:31  TRACK 10 AUDIO    TITLE "Never Again"    PERFORMER "Elvis Presley"    REM COMPOSER ""    INDEX 00 29:34:59    INDEX 01 29:36:45  TRACK 11 AUDIO    TITLE "Danny Boy"    PERFORMER "Elvis Presley"    REM COMPOSER ""    INDEX 00 32:27:37    INDEX 01 32:29:44  TRACK 12 AUDIO    TITLE "Solitaire"    PERFORMER "Elvis Presley"    REM COMPOSER ""    INDEX 00 36:25:70    INDEX 01 36:27:66  TRACK 13 AUDIO    TITLE "Moody Blue"    PERFORMER "Elvis Presley"    REM COMPOSER ""    INDEX 00 41:08:20    INDEX 01 41:09:59  TRACK 14 AUDIO    TITLE "It's Easy For You"    PERFORMER "Elvis Presley"    REM COMPOSER ""    INDEX 00 43:59:08    INDEX 01 44:00:57  TRACK 15 AUDIO    TITLE "I'll Never Fall In Love Again"    PERFORMER "Elvis Presley"    REM COMPOSER ""    INDEX 00 47:27:74    INDEX 01 47:30:22  TRACK 16 AUDIO    TITLE "The Last Farewell"    PERFORMER "Elvis Presley"    REM COMPOSER ""    INDEX 00 51:14:74    INDEX 01 51:16:21

Лог проверки качества

-----------------------
DON'T MODIFY THIS FILE
-----------------------
PERFORMER: auCDtect Task Manager, ver. 1.5.1RC4 build 1.5.1.5Copyright (c) 2008-2010 y-soft. All rights reservedhttp://y-soft.org
ANALYZER: auCDtect: CD records authenticity detector, version 0.8.2Copyright (c) 2004 Oleg Berngardt. All rights reserved.Copyright (c) 2004 Alexander Djourik. All rights reserved.
FILE: Elvis Presley - Way Down In The Jungle Room - Disc 01 - The Masters.flac Size: 333372818 Hash: C731EB0CA095401213B8D2ACEBBFDD94 Accuracy: -m0 Conclusion: CDDA 100% Signature: E33A7CA48CCF583A7B6DAB2C9E4EFE4F3C6D3AE1

Замер динамического диапазона

foobar2000 1.3.9 / Замер динамического диапазона (DR) 1.1.1Дата отчёта:  2018-06-03 23:35:24
--------------------------------------------------------------------------------Анализ: Elvis Presley / Way Down In The Jungle Room - Disc 01 - The Masters--------------------------------------------------------------------------------
DR Пики RMS Продолжительность трека--------------------------------------------------------------------------------DR13 0.00 дБ -15.46 дБ 2:39 1-Way DownDR11 -0.15 дБ -14.53 дБ 3:51 2-She Thinks I Still CareDR10 0.00 дБ -13.31 дБ 3:19 3-Bitter They Are, Harder They FallDR13 -0.17 дБ -15.94 дБ 2:52 4-Pledging My LoveDR9 -1.42 дБ -13.07 дБ 3:24 5-For The HeartDR11 -0.16 дБ -13.43 дБ 3:08 6-Love Coming DownDR12 -0.61 дБ -14.86 дБ 4:33 7-He'll Have To GoDR11 -0.17 дБ -13.17 дБ 3:43 8-Blue Eyes Crying In The RainDR10 -0.59 дБ -12.70 дБ 2:09 9-HurtDR10 -0.14 дБ -12.63 дБ 2:53 10-Never AgainDR11 -0.99 дБ -17.06 дБ 3:58 11-Danny BoyDR12 -0.17 дБ -14.84 дБ 4:42 12-SolitaireDR11 -0.13 дБ -12.98 дБ 2:51 13-Moody BlueDR12 -0.15 дБ -15.37 дБ 3:30 14-It's Easy For YouDR10 -0.09 дБ -12.47 дБ 3:46 15-I'll Never Fall In Love AgainDR11 -0.25 дБ -13.80 дБ 4:03 16-The Last Farewell--------------------------------------------------------------------------------
Количество треков: 16Реальные значения DR: DR11
Частота: 44100 ГцКаналов: 2Разрядность: 16Битрейт: 803 кбит/сКодек: FLAC================================================================================

Disc Two: The Outtakes (01:16:11)

01. Bitter They Are, Harder They Fall (Take 1) 05:16
02. She Thinks I Still Care (Take 10) 06:33
03. The Last Farewell (Take 2) 04:16
04. Solitaire (Take 7) 05:39
05. I'll Never Fall In Love Again (Take 5) 04:05
06. Moody Blue (Take 1) 03:56
07. For The Heart (Take 1) 03:57
08. Hurt (Take 3) 02:33
09. Danny Boy (Take 9) 04:04
10. Never Again (Take 9) 03:58
11. Love Coming Down (Take 3) 03:19
12. Blue Eyes Crying In The Rain (Take 4) 05:01
13. She Thinks I Still Care (Alternate Version, Take 2) 04:28
14. It's Easy For You (Take 1) 05:26
15. Way Down (Take 2) 03:55
16. Pledging My Love (Take 3) 05:37
17. For The Heart (Take 4) 04:13

Лог создания рипа

Exact Audio Copy V1.3 from 2. September 2016
EAC extraction logfile from 3. June 2018, 13:26
Elvis Presley / Way Down In The Jungle Room - Disc 02 - The Outtakes
Used drive : ATAPI iHAS122 C Adapter: 1 ID: 0
Read mode : SecureUtilize accurate stream : YesDefeat audio cache : YesMake use of C2 pointers : No
Read offset correction : 6Overread into Lead-In and Lead-Out : NoFill up missing offset samples with silence : YesDelete leading and trailing silent blocks : NoNull samples used in CRC calculations : YesUsed interface : Native Win32 interface for Win NT & 2000
Used output format : Internal WAV RoutinesSample format : 44.100 Hz; 16 Bit; Stereo
TOC of the extracted CD
Track | Start | Length | Start sector | End sector --------------------------------------------------------- 1 | 0:00.00 | 5:16.19 | 0 | 23718 2 | 5:16.19 | 6:32.41 | 23719 | 53159 3 | 11:48.60 | 4:16.30 | 53160 | 72389 4 | 16:05.15 | 5:38.53 | 72390 | 97792 5 | 21:43.68 | 4:04.52 | 97793 | 116144 6 | 25:48.45 | 3:55.48 | 116145 | 133817 7 | 29:44.18 | 3:57.24 | 133818 | 151616 8 | 33:41.42 | 2:32.40 | 151617 | 163056 9 | 36:14.07 | 4:03.50 | 163057 | 181331 10 | 40:17.57 | 3:57.73 | 181332 | 199179 11 | 44:15.55 | 3:19.07 | 199180 | 214111 12 | 47:34.62 | 5:00.68 | 214112 | 236679 13 | 52:35.55 | 4:28.19 | 236680 | 256798 14 | 57:03.74 | 5:25.42 | 256799 | 281215 15 | 62:29.41 | 3:52.07 | 281216 | 298622 16 | 66:21.48 | 5:36.41 | 298623 | 323863 17 | 71:58.14 | 4:12.69 | 323864 | 342832
Range status and errors
Selected range
Filename C:\Users\London\Desktop\Elvis Presley - Way Down In The Jungle Room - Disc 02 - The Outtakes.wav
Peak level 100.0 % Extraction speed 9.8 X Range quality 100.0 % Test CRC E5A601BC Copy CRC E5A601BC Copy OK
No errors occurred
AccurateRip summary
Track 1 cannot be verified as accurate (confidence 51) [5105DBEA], AccurateRip returned [7AF19878] (AR v2)Track 2 cannot be verified as accurate (confidence 52) [B0B7DBD6], AccurateRip returned [ECDCAB70] (AR v2)Track 3 cannot be verified as accurate (confidence 52) [D14E5CBE], AccurateRip returned [46049477] (AR v2)Track 4 cannot be verified as accurate (confidence 52) [9A2C8F9F], AccurateRip returned [FDB6F163] (AR v2)Track 5 cannot be verified as accurate (confidence 52) [2875EA94], AccurateRip returned [20B75ACA] (AR v2)Track 6 cannot be verified as accurate (confidence 52) [137BFDDE], AccurateRip returned [08FE3E62] (AR v2)Track 7 cannot be verified as accurate (confidence 52) [177A17AF], AccurateRip returned [5832BF46] (AR v2)Track 8 cannot be verified as accurate (confidence 51) [58FC98ED], AccurateRip returned [14BC1225] (AR v2)Track 9 cannot be verified as accurate (confidence 52) [C8C276E0], AccurateRip returned [A020DE42] (AR v2)Track 10 cannot be verified as accurate (confidence 51) [4EE935BE], AccurateRip returned [52DB79CB] (AR v2)Track 11 cannot be verified as accurate (confidence 52) [B26409C5], AccurateRip returned [D23D11F8] (AR v2)Track 12 cannot be verified as accurate (confidence 52) [9B3BDE8B], AccurateRip returned [EDBE9381] (AR v2)Track 13 cannot be verified as accurate (confidence 52) [DC5E8978], AccurateRip returned [EFBB6681] (AR v2)Track 14 cannot be verified as accurate (confidence 52) [45066BF5], AccurateRip returned [B5B6161D] (AR v2)Track 15 cannot be verified as accurate (confidence 52) [76CBBCB5], AccurateRip returned [344296F3] (AR v2)Track 16 cannot be verified as accurate (confidence 52) [E1A1425C], AccurateRip returned [E26524B8] (AR v2)Track 17 cannot be verified as accurate (confidence 53) [E1D90996], AccurateRip returned [CABC7F64] (AR v2)
No tracks could be verified as accurateYou may have a different pressing from the one(s) in the database
End of status report
---- CUETools DB Plugin V2.1.6
[CTDB TOCID: DGeVnR63UNgvDOmKAP_d5yPHVnQ-] foundSubmit result: DGeVnR63UNgvDOmKAP_d5yPHVnQ- has been confirmedTrack | CTDB Status 1 | (128/129) Accurately ripped 2 | (129/129) Accurately ripped 3 | (129/129) Accurately ripped 4 | (128/129) Accurately ripped 5 | (129/129) Accurately ripped 6 | (129/129) Accurately ripped 7 | (129/129) Accurately ripped 8 | (129/129) Accurately ripped 9 | (129/129) Accurately ripped 10 | (129/129) Accurately ripped 11 | (129/129) Accurately ripped 12 | (129/129) Accurately ripped 13 | (128/129) Accurately ripped 14 | (128/129) Accurately ripped 15 | (128/129) Accurately ripped 16 | (128/129) Accurately ripped 17 | (126/129) Accurately ripped
==== Log checksum 6D5F85C30C2B274F2ED43475DABCBE1141A0599720041F896630561E1AD67B7C ====

Содержание индексной карты (.CUE)

REM GENRE OldiesREM DATE 2016REM DISCID F411DB11REM COMMENT "ExactAudioCopy v1.3"PERFORMER "Elvis Presley"TITLE "Way Down In The Jungle Room - Disc 02 - The Outtakes"REM COMPOSER ""FILE "Elvis Presley - Way Down In The Jungle Room - Disc 02 - The Outtakes.flac" WAVE  TRACK 01 AUDIO    TITLE "Bitter They Are, Harder They Fall - take 1"    PERFORMER "Elvis Presley"    REM COMPOSER ""    INDEX 01 00:00:00  TRACK 02 AUDIO    TITLE "She Thinks I Still Care - take 10"    PERFORMER "Elvis Presley"    REM COMPOSER ""    INDEX 00 05:14:53    INDEX 01 05:16:19  TRACK 03 AUDIO    TITLE "The Last Farewell - take 2"    PERFORMER "Elvis Presley"    REM COMPOSER ""    INDEX 00 11:46:54    INDEX 01 11:48:60  TRACK 04 AUDIO    TITLE "Solitaire - take 7"    PERFORMER "Elvis Presley"    REM COMPOSER ""    INDEX 00 16:04:37    INDEX 01 16:05:15  TRACK 05 AUDIO    TITLE "I'll Never Fall In Love Again - take 5"    PERFORMER "Elvis Presley"    REM COMPOSER ""    INDEX 00 21:42:44    INDEX 01 21:43:68  TRACK 06 AUDIO    TITLE "Moody Blue - take1"    PERFORMER "Elvis Presley"    REM COMPOSER ""    INDEX 00 25:47:64    INDEX 01 25:48:45  TRACK 07 AUDIO    TITLE "For The Heart - take1"    PERFORMER "Elvis Presley"    REM COMPOSER ""    INDEX 00 29:42:05    INDEX 01 29:44:18  TRACK 08 AUDIO    TITLE "Hurt - take 3"    PERFORMER "Elvis Presley"    REM COMPOSER ""    INDEX 00 33:39:26    INDEX 01 33:41:42  TRACK 09 AUDIO    TITLE "Danny Boy - take 9"    PERFORMER "Elvis Presley"    REM COMPOSER ""    INDEX 00 36:12:11    INDEX 01 36:14:07  TRACK 10 AUDIO    TITLE "Never Again - take 9"    PERFORMER "Elvis Presley"    REM COMPOSER ""    INDEX 00 40:16:11    INDEX 01 40:17:57  TRACK 11 AUDIO    TITLE "Love Coming Down - take 3"    PERFORMER "Elvis Presley"    REM COMPOSER ""    INDEX 00 44:14:25    INDEX 01 44:15:55  TRACK 12 AUDIO    TITLE "Blue Eyes Crying In The Rain - take 4"    PERFORMER "Elvis Presley"    REM COMPOSER ""    INDEX 00 47:33:35    INDEX 01 47:34:62  TRACK 13 AUDIO    TITLE "She Thinks I Still Care - (alternate version) take 2"    PERFORMER "Elvis Presley"    REM COMPOSER ""    INDEX 00 52:33:72    INDEX 01 52:35:55  TRACK 14 AUDIO    TITLE "It's Easy For You - take 1"    PERFORMER "Elvis Presley"    REM COMPOSER ""    INDEX 00 57:01:64    INDEX 01 57:03:74  TRACK 15 AUDIO    TITLE "Way Down - take 2"    PERFORMER "Elvis Presley"    REM COMPOSER ""    INDEX 00 62:27:73    INDEX 01 62:29:41  TRACK 16 AUDIO    TITLE "Pledging My Love - take 3"    PERFORMER "Elvis Presley"    REM COMPOSER ""    INDEX 00 66:19:23    INDEX 01 66:21:48  TRACK 17 AUDIO    TITLE "For The Heart - take 4"    PERFORMER "Elvis Presley"    REM COMPOSER ""    INDEX 00 71:55:60    INDEX 01 71:58:14

Лог проверки качества

-----------------------
DON'T MODIFY THIS FILE
-----------------------
PERFORMER: auCDtect Task Manager, ver. 1.5.1RC4 build 1.5.1.5Copyright (c) 2008-2010 y-soft. All rights reservedhttp://y-soft.org
ANALYZER: auCDtect: CD records authenticity detector, version 0.8.2Copyright (c) 2004 Oleg Berngardt. All rights reserved.Copyright (c) 2004 Alexander Djourik. All rights reserved.
FILE: Elvis Presley - Way Down In The Jungle Room - Disc 02 - The Outtakes.flac Size: 444446387 Hash: 7877344072A9EAFC41462A7DB6E198E7 Accuracy: -m0 Conclusion: CDDA 100% Signature: B0DBD90EBC1036D89802482406277E0BD14488B4

Замер динамического диапазона

foobar2000 1.3.9 / Замер динамического диапазона (DR) 1.1.1Дата отчёта:  2018-06-03 23:38:36
--------------------------------------------------------------------------------Анализ: Elvis Presley / Way Down In The Jungle Room - Disc 02 - The Outtakes--------------------------------------------------------------------------------
DR Пики RMS Продолжительность трека--------------------------------------------------------------------------------DR12 -0.10 дБ -16.19 дБ 5:16 1-Bitter They Are, Harder They Fall - take 1DR13 -0.14 дБ -16.73 дБ 6:33 2-She Thinks I Still Care - take 10DR12 -0.12 дБ -14.78 дБ 4:16 3-The Last Farewell - take 2DR14 -0.13 дБ -18.49 дБ 5:39 4-Solitaire - take 7DR12 0.00 дБ -15.22 дБ 4:05 5-I'll Never Fall In Love Again - take 5DR13 -0.08 дБ -15.46 дБ 3:56 6-Moody Blue - take1DR12 -0.06 дБ -13.66 дБ 3:57 7-For The Heart - take1DR12 0.00 дБ -14.73 дБ 2:33 8-Hurt - take 3DR14 -2.23 дБ -20.42 дБ 4:04 9-Danny Boy - take 9DR13 -0.13 дБ -16.80 дБ 3:58 10-Never Again - take 9DR13 -0.06 дБ -16.19 дБ 3:19 11-Love Coming Down - take 3DR12 -0.09 дБ -14.80 дБ 5:01 12-Blue Eyes Crying In The Rain - take 4DR13 -0.17 дБ -16.40 дБ 4:28 13-She Thinks I Still Care - (alternate version) take 2DR13 -1.14 дБ -17.96 дБ 5:26 14-It's Easy For You - take 1DR12 -0.22 дБ -17.02 дБ 3:52 15-Way Down - take 2DR13 0.00 дБ -16.75 дБ 5:37 16-Pledging My Love - take 3DR11 -0.65 дБ -13.90 дБ 4:13 17-For The Heart - take 4--------------------------------------------------------------------------------
Количество треков: 17Реальные значения DR: DR13
Частота: 44100 ГцКаналов: 2Разрядность: 16Битрейт: 778 кбит/сКодек: FLAC================================================================================
Доп. информация

Состав

Elvis Presley - Vocals, Guitar
Bill Baize - Vocals
David Briggs - Piano (Electric)
Tony Brown - Piano
James Burton - Guitar
Randy Cullers Percussion
Dolores Edgin - Horn, Strings, Vocals
Ed Enoch - Vocals
Glen D. Hardin - Piano
Ed Hill - Vocals
Charlie Hodge - Guitar
Shane Keister - Moog Synthesizer
Farrell Morris - Congas, Timpani
Weldon Myrick - Guitar (Steel)
Sherrill Nielsen - Vocals
Jerry Scheff - Bass
Myrna Smith - Vocals
The Stamps - Vocals
Larry Strickland - Vocals
Wendellyn Suits - Horn, Strings, Vocals
J.D. Sumner - Vocals
Ronnie Tutt - Drums
Kathy Westmoreland - Vocals
Hurshel Wiginton - Horn, Strings, Vocals
John Wilkinson - Guitar
Chip Young - Guitar

Об исполнителе

In 1976, Elvis Presley was in an unusual position -- he was still the King of Rock & Roll and could sell out arenas all across the nation, but Top 40 radio played him only as an oldies act, and his new material popped up on the Easy Listening and Adult Contemporary charts when it charted at all. Tired of working in the studio where scheduling pressures stifled his creative spirit, Presley converted his den at his mansion Graceland into a recording studio with the help of RCA's mobile unit. Working with members of his top-notch road band, Presley recorded the sort of material he wanted to try -- songs that reflected his own maturity and that of his audience -- and the home-recorded sessions would become the basis for two albums, 1976's From Elvis Presley Boulevard, Memphis, Tennessee and 1977's Moody Blue. Way Down in the Jungle Room is an archival collection that collects the material recorded at Graceland in 1976, which would prove to be Presley's final recording sessions. Way Down in the Jungle Room includes the material from From Elvis Presley Boulevard, Memphis, Tennessee and Moody Blue, and a second disc of outtakes and alternate versions to create the definitive document of this often overlooked period in Presley's career.
http://www.allmusic.com/album/release/way-down-in-the-jungle-room-mr0004580299
http://en.wikipedia.org/wiki/Way_Down_in_the_Jungle_Room
http://en.wikipedia.org/wiki/Elvis_Presley
http://elvis.com
Вы не можете начинать темы
Вы не можете отвечать на сообщения
Вы не можете редактировать свои сообщения
Вы не можете удалять свои сообщения
Вы не можете голосовать в опросах
Вы не можете прикреплять файлы к сообщениям
Вы можете скачивать файлы
!ВНИМАНИЕ!

Сайт не предоставляет электронные версии произведений, а занимается лишь коллекционированием и каталогизацией ссылок, присылаемых и публикуемых на форуме нашими читателями. Если вы являетесь правообладателем какого-либо представленного материала и не желаете, чтобы ссылка на него находилась в нашем каталоге, свяжитесь с нами, и мы незамедлительно удалим ее. Файлы для обмена на трекере предоставлены пользователями сайта, и администрация не несет ответственности за их содержание. Просьба не заливать файлы, защищенные авторскими правами, а также файлы нелегального содержания!

Искали программы, игры, дополнения, музыка mp3, аниме, аудио книги, журналы? Добро пожаловать на свободный торрент трекер Torrents, у нас можно скачать бесплатно, без смс и регистрации и прочих ограничений лучшие, отборные сборки программ, игр. Скачать торрентом не составит труда даже не опытному пользователю. Раздачи ежедневно обновляются, только лучшие и качественные раздачи, подробные описания и скриншоты. Огромная коллекция программ для работы со звуком, графикой, дизайном, а так же множество плагинов и инструментов к ним с подробной инструкцией и рекомендациями. Прошивки для навигаторов, карты. Разнообразные игры, для Windows, Linux. В коллекцие есть и старые игры любых жанров, Rpg, Action, Shooter, strategy Множество дополнений, модификаций, сценариев для популярных игр в жанре экш, рпг, гонки, стратегии, логические игры. Множество аддонов и сценариев для Microsoft Flight Simulator Большая коллекция книг, учебников. Если нет возможности купить печатное издание - смело скачивайте цифровую версию книги или, быть может, журнала. Не любите читать - можно загрузить бесплатно аудикнигу. Для веб дизайнеров и программистов так же найдется множество специализированного софта, таких как: редакторы с подсветкой, среды программирования, компоненты, системы управления базами данных, разнообразные скрипты и шаблоны. Не так давно у нас появился материал для автолюбителей и владельцев мото - оригинальные и неоригинальные каталоги запчастей, книги и журналы по ремонту и обслуживанию, видеоуроки, статьи по чип тюнингу, прошивкам. Процедура получения контента элементарная, достаточно просто скачать торрент файл и добавить его в загрузку в вашем торрент клиенте. Если у вас нет специального торрент клиента, вы можете его скачать у нас.