(Psychobilly) [CD] Sick Sick Sinners - Unfuckingstoppable - 2014, FLAC (image+.cue), lossless 

Цитировать
Sick Sick Sinners / Unfuckingstoppable
Жанр: Psychobilly
Носитель: CD
Страна-производитель диска (релиза): Germany
Год издания: 2014
Издатель (лейбл): Crazy Love Records
Номер по каталогу: CLCD64349
Страна исполнителя (группы): Brazil
Аудиокодек: FLAC (*.flac)
Тип рипа: image+.cue
Битрейт аудио: lossless
Продолжительность: 00:25:03
Источник (релизер): ~~~~~
Наличие сканов в содержимом раздачи: нет
Треклист:
01. Coffee Freak
02. Where Is My Baby Girl
03. 3 Demons At My Door
04. Six Feet Underground
05. Wild Party In Hell
06. Same Breed
07. We Wanna Drink Some More
08. Unfuckingstoppable
09. Bacon Seed
10. Wasted Everyday

Лог создания рипа

Exact Audio Copy V1.0 beta 3 from 29. August 2011
EAC extraction logfile from 11. June 2018, 0:50
Sick Sick Sinners / Unfuckingstoppable
Used drive : ASUS DRW-24B3ST Adapter: 13 ID: 0
Read mode : SecureUtilize accurate stream : YesDefeat audio cache : YesMake use of C2 pointers : No
Read offset correction : 6Overread into Lead-In and Lead-Out : NoFill up missing offset samples with silence : YesDelete leading and trailing silent blocks : NoNull samples used in CRC calculations : YesUsed interface : Native Win32 interface for Win NT & 2000
Used output format : User Defined EncoderSelected bitrate : 768 kBit/sQuality : HighAdd ID3 tag : NoCommand line compressor : C:\Program Files (x86)\Exact Audio Copy\FLAC\FLAC.EXEAdditional command line options : -6 -V -T "Artist=%Artist%" -T "Title=%title%" -T "Album=%albumtitle%" -T "Date=%year%" -T "TRACKNUMBER=%tracknr%" -T "GENRE=%genre%" -T "COMMENT=%comment%" -T "BAND=%albuminterpret%" -T "ALBUMARTIST=%albuminterpret%" -T "COMPOSER=%composer%" %haslyrics%--tag-from-file=LYRICS="%lyricsfile%"%haslyrics% -T "DISCNUMBER=%cdnumber%" -T "TOTALDISCS=%totalcds%" -T "TOTALTRACKS=%numtracks%" %hascover%--picture="%coverfile%"%hascover% %source% -o %dest%
TOC of the extracted CD
Track | Start | Length | Start sector | End sector --------------------------------------------------------- 1 | 0:00.00 | 2:21.20 | 0 | 10594 2 | 2:21.20 | 2:38.03 | 10595 | 22447 3 | 4:59.23 | 2:40.08 | 22448 | 34455 4 | 7:39.31 | 2:24.34 | 34456 | 45289 5 | 10:03.65 | 2:56.07 | 45290 | 58496 6 | 12:59.72 | 2:51.04 | 58497 | 71325 7 | 15:51.01 | 2:54.74 | 71326 | 84449 8 | 18:46.00 | 2:20.17 | 84450 | 94966 9 | 21:06.17 | 2:32.09 | 94967 | 106375 10 | 23:38.26 | 1:24.64 | 106376 | 112739
Range status and errors
Selected range
Filename D:\Sick Sick Sinners - Unfuckingstoppable\Sick Sick Sinners - Unfuckingstoppable.wav
Peak level 97.7 % Extraction speed 7.2 X Range quality 100.0 % Test CRC 1EE74CE4 Copy CRC 1EE74CE4 Copy OK
No errors occurred
AccurateRip summary
Track 1 accurately ripped (confidence 1) [59412A6F] (AR v2)Track 2 accurately ripped (confidence 1) [117B5939] (AR v2)Track 3 accurately ripped (confidence 1) [B2D22360] (AR v2)Track 4 accurately ripped (confidence 1) [0A955395] (AR v2)Track 5 accurately ripped (confidence 1) [02B2D8BF] (AR v2)Track 6 accurately ripped (confidence 1) [6464F72B] (AR v2)Track 7 accurately ripped (confidence 1) [978511E0] (AR v2)Track 8 accurately ripped (confidence 1) [46382839] (AR v2)Track 9 accurately ripped (confidence 1) [B452F60D] (AR v2)Track 10 accurately ripped (confidence 1) [BF822E0B] (AR v2)
All tracks accurately ripped
End of status report
==== Log checksum 71A2620C8712192D84BE0D187E55003D19969FAE03E9A67001A501D2ABE68508 ====

Содержание индексной карты (.CUE)

REM GENRE psychobillyREM DATE 2014REM DISCID 6905DF0AREM COMMENT "ExactAudioCopy v1.0b3"PERFORMER "Sick Sick Sinners"TITLE "Unfuckingstoppable"FILE "Sick Sick Sinners - Unfuckingstoppable.flac" WAVE  TRACK 01 AUDIO    TITLE "Coffee Freak"    PERFORMER "Sick Sick Sinners"    INDEX 01 00:00:00  TRACK 02 AUDIO    TITLE "Where Is My Baby Girl"    PERFORMER "Sick Sick Sinners"    INDEX 01 02:21:20  TRACK 03 AUDIO    TITLE "3 Demons At My Door"    PERFORMER "Sick Sick Sinners"    INDEX 01 04:59:23  TRACK 04 AUDIO    TITLE "Six Feet Underground"    PERFORMER "Sick Sick Sinners"    INDEX 01 07:39:31  TRACK 05 AUDIO    TITLE "Wild Party In Hell"    PERFORMER "Sick Sick Sinners"    INDEX 01 10:03:65  TRACK 06 AUDIO    TITLE "Same Breed"    PERFORMER "Sick Sick Sinners"    INDEX 01 12:59:72  TRACK 07 AUDIO    TITLE "We Wanna Drink Some More"    PERFORMER "Sick Sick Sinners"    INDEX 01 15:51:01  TRACK 08 AUDIO    TITLE "Unfuckingstoppable"    PERFORMER "Sick Sick Sinners"    INDEX 01 18:46:00  TRACK 09 AUDIO    TITLE "Bacon Seed"    PERFORMER "Sick Sick Sinners"    INDEX 01 21:06:17  TRACK 10 AUDIO    TITLE "Wasted Everyday"    PERFORMER "Sick Sick Sinners"    INDEX 01 23:38:26
Вы не можете начинать темы
Вы не можете отвечать на сообщения
Вы не можете редактировать свои сообщения
Вы не можете удалять свои сообщения
Вы не можете голосовать в опросах
Вы не можете прикреплять файлы к сообщениям
Вы можете скачивать файлы
!ВНИМАНИЕ!

Сайт не предоставляет электронные версии произведений, а занимается лишь коллекционированием и каталогизацией ссылок, присылаемых и публикуемых на форуме нашими читателями. Если вы являетесь правообладателем какого-либо представленного материала и не желаете, чтобы ссылка на него находилась в нашем каталоге, свяжитесь с нами, и мы незамедлительно удалим ее. Файлы для обмена на трекере предоставлены пользователями сайта, и администрация не несет ответственности за их содержание. Просьба не заливать файлы, защищенные авторскими правами, а также файлы нелегального содержания!

Искали программы, игры, дополнения, музыка mp3, аниме, аудио книги, журналы? Добро пожаловать на свободный торрент трекер Torrents, у нас можно скачать бесплатно, без смс и регистрации и прочих ограничений лучшие, отборные сборки программ, игр. Скачать торрентом не составит труда даже не опытному пользователю. Раздачи ежедневно обновляются, только лучшие и качественные раздачи, подробные описания и скриншоты. Огромная коллекция программ для работы со звуком, графикой, дизайном, а так же множество плагинов и инструментов к ним с подробной инструкцией и рекомендациями. Прошивки для навигаторов, карты. Разнообразные игры, для Windows, Linux. В коллекцие есть и старые игры любых жанров, Rpg, Action, Shooter, strategy Множество дополнений, модификаций, сценариев для популярных игр в жанре экш, рпг, гонки, стратегии, логические игры. Множество аддонов и сценариев для Microsoft Flight Simulator Большая коллекция книг, учебников. Если нет возможности купить печатное издание - смело скачивайте цифровую версию книги или, быть может, журнала. Не любите читать - можно загрузить бесплатно аудикнигу. Для веб дизайнеров и программистов так же найдется множество специализированного софта, таких как: редакторы с подсветкой, среды программирования, компоненты, системы управления базами данных, разнообразные скрипты и шаблоны. Не так давно у нас появился материал для автолюбителей и владельцев мото - оригинальные и неоригинальные каталоги запчастей, книги и журналы по ремонту и обслуживанию, видеоуроки, статьи по чип тюнингу, прошивкам. Процедура получения контента элементарная, достаточно просто скачать торрент файл и добавить его в загрузку в вашем торрент клиенте. Если у вас нет специального торрент клиента, вы можете его скачать у нас.