(Garage Punk, Psychobilly) [CDR] Bastard & the Projectiles - We\'re Too Bad - 2005, FLAC (tracks+.cue), lossless 

Цитировать
Bastard & the Projectiles / We're Too Bad
Жанр: Garage Punk, Psychobilly
Носитель: CDR
Страна-производитель диска (релиза): Украина
Год издания: 2005
Издатель (лейбл): Bastard's Homestudio
Номер по каталогу: отсутствует
Страна исполнителя (группы): Украина
Аудиокодек: FLAC (*.flac)
Тип рипа: tracks+.cue
Битрейт аудио: lossless
Продолжительность: 00:14:07
Источник (релизер): собтвенный диск
Наличие сканов в содержимом раздачи: нет
Треклист:
1. My Blood Is Napalm
2. Rockin' Bastard
3. Song About Nothing
4. She Makes Mad
5. Too Bad
6. Wreck'n'Roll
7. Outro

Лог создания рипа

X Lossless Decoder version 20170729 (150.3)
XLD extraction logfile from 2018-07-26 17:08:28 +0300
Bastard & the Projectiles / We're Too Bad
Used drive : MATSHITA DVD-R UJ-898 (revision HE13)Media type : CD-Recordable
Ripper mode : XLD Secure RipperDisable audio cache : OK for the drive with a cache less than 1375KiBMake use of C2 pointers : NORead offset correction : 102Max retry count : 100Gap status : Analyzed, Appended
TOC of the extracted CD Track | Start | Length | Start sector | End sector --------------------------------------------------------- 1 | 00:00:00 | 02:13:64 | 0 | 10038 2 | 02:13:64 | 02:51:61 | 10039 | 22924 3 | 05:05:50 | 01:13:62 | 22925 | 28461 4 | 06:19:37 | 02:41:22 | 28462 | 40558 5 | 09:00:59 | 01:32:03 | 40559 | 47461 6 | 10:32:62 | 02:20:74 | 47462 | 58035 7 | 12:53:61 | 01:13:18 | 58036 | 63528 8 | 16:39:04 | 11:39:50 | 74929 | 127403
AccurateRip Summary Disc not found in AccurateRip DB.
All Tracks Album gain : -9.37 dB Peak : 1.000000 Statistics Read error : 0 Jitter error (maybe fixed) : 2 Retry sector count : 1 Damaged sector count : 0
Track 01 Filename : /Users/kas/Public/Bastard & the Projectiles - We're Too Bad (2005)/01 Bastard & the Projectiles - My Blood Is Napalm.flac Pre-gap length : 00:02:00
Track gain : -8.73 dB Peak : 1.000000 CRC32 hash (test run) : 85EBDD40 CRC32 hash : 85EBDD40 CRC32 hash (skip zero) : 6A992206 AccurateRip v1 signature : 9FA28013 AccurateRip v2 signature : 837BFCFC ->Track not present in AccurateRip database. Statistics Read error : 0 Jitter error (maybe fixed) : 0 Retry sector count : 0 Damaged sector count : 0
Track 02 Filename : /Users/kas/Public/Bastard & the Projectiles - We're Too Bad (2005)/02 Bastard & the Projectiles - Rockin' Bastard.flac Pre-gap length : 00:01:73
Track gain : -7.75 dB Peak : 1.000000 CRC32 hash (test run) : ECDC51BD CRC32 hash : ECDC51BD CRC32 hash (skip zero) : 132605EC AccurateRip v1 signature : 371486D4 AccurateRip v2 signature : 4CC009F9 ->Track not present in AccurateRip database. Statistics Read error : 0 Jitter error (maybe fixed) : 0 Retry sector count : 0 Damaged sector count : 0
Track 03 Filename : /Users/kas/Public/Bastard & the Projectiles - We're Too Bad (2005)/03 Bastard & the Projectiles - Song About Nothing.flac Pre-gap length : 00:01:74
Track gain : -9.27 dB Peak : 1.000000 CRC32 hash (test run) : C04D77C9 CRC32 hash : C04D77C9 CRC32 hash (skip zero) : BA55BCE6 AccurateRip v1 signature : 50D71A27 AccurateRip v2 signature : 57CD5B3D ->Track not present in AccurateRip database. Statistics Read error : 0 Jitter error (maybe fixed) : 1 Retry sector count : 1 Damaged sector count : 0
Track 04 Filename : /Users/kas/Public/Bastard & the Projectiles - We're Too Bad (2005)/04 Bastard & the Projectiles - She Makes Mad.flac Pre-gap length : 00:01:73
Track gain : -9.93 dB Peak : 1.000000 CRC32 hash (test run) : 3F703FF3 CRC32 hash : 3F703FF3 CRC32 hash (skip zero) : B5A869C1 AccurateRip v1 signature : E12CF4B9 AccurateRip v2 signature : 3A327153 ->Track not present in AccurateRip database. Statistics Read error : 0 Jitter error (maybe fixed) : 1 Retry sector count : 0 Damaged sector count : 0
Track 05 Filename : /Users/kas/Public/Bastard & the Projectiles - We're Too Bad (2005)/05 Bastard & the Projectiles - Too Bad.flac Pre-gap length : 00:01:73
Track gain : -9.95 dB Peak : 1.000000 CRC32 hash (test run) : 2B1424DD CRC32 hash : 2B1424DD CRC32 hash (skip zero) : 49D80880 AccurateRip v1 signature : 3C49CFD4 AccurateRip v2 signature : 24FD797B ->Track not present in AccurateRip database. Statistics Read error : 0 Jitter error (maybe fixed) : 0 Retry sector count : 0 Damaged sector count : 0
Track 06 Filename : /Users/kas/Public/Bastard & the Projectiles - We're Too Bad (2005)/06 Bastard & the Projectiles - Wreck'n'Roll.flac Pre-gap length : 00:01:74
Track gain : -9.62 dB Peak : 1.000000 CRC32 hash (test run) : 9F9EC1C3 CRC32 hash : 9F9EC1C3 CRC32 hash (skip zero) : 9CEB4CB2 AccurateRip v1 signature : 45E171FB AccurateRip v2 signature : 79F42AF2 ->Track not present in AccurateRip database. Statistics Read error : 0 Jitter error (maybe fixed) : 0 Retry sector count : 0 Damaged sector count : 0
Track 07 Filename : /Users/kas/Public/Bastard & the Projectiles - We're Too Bad (2005)/07 Bastard & the Projectiles - Outro.flac Pre-gap length : 00:01:73
Track gain : -10.38 dB Peak : 1.000000 CRC32 hash (test run) : 94ACFD24 CRC32 hash : 94ACFD24 CRC32 hash (skip zero) : 4D48595B AccurateRip v1 signature : E30BCF7D AccurateRip v2 signature : 062FC766 ->Track not present in AccurateRip database. Statistics Read error : 0 Jitter error (maybe fixed) : 0 Retry sector count : 0 Damaged sector count : 0
No errors occurred
End of status report
-----BEGIN XLD SIGNATURE-----5ykxgjbHQt8SJv1vC_v5KPBt3JleGMFzE_xJuc65ydAZRim5wL_VYk05.7vAEO5u3V6sm3HzCFuThRUclxSqkvJ6OpA_NoeaOpDUYGW-----END XLD SIGNATURE-----

Содержание индексной карты (.CUE)

TITLE "We're Too Bad"PERFORMER "Bastard & the Projectiles"REM GENRE "Garage Punk / Psychobilly"REM DATE "2005"REM DISCID 4E06A208REM REPLAYGAIN_ALBUM_GAIN -9.37 dBREM REPLAYGAIN_ALBUM_PEAK 1.000000FILE "01 Bastard & the Projectiles - My Blood Is Napalm.flac" WAVE  TRACK 01 AUDIO    TITLE "My Blood Is Napalm"    PERFORMER "Bastard & the Projectiles"    REM REPLAYGAIN_TRACK_GAIN -8.73 dB    REM REPLAYGAIN_TRACK_PEAK 1.000000    INDEX 01 00:00:00  TRACK 02 AUDIO    TITLE "Rockin' Bastard"    PERFORMER "Bastard & the Projectiles"    REM REPLAYGAIN_TRACK_GAIN -7.75 dB    REM REPLAYGAIN_TRACK_PEAK 1.000000    INDEX 00 02:11:66FILE "02 Bastard & the Projectiles - Rockin' Bastard.flac" WAVE    INDEX 01 00:00:00  TRACK 03 AUDIO    TITLE "Song About Nothing"    PERFORMER "Bastard & the Projectiles"    REM REPLAYGAIN_TRACK_GAIN -9.27 dB    REM REPLAYGAIN_TRACK_PEAK 1.000000    INDEX 00 02:49:62FILE "03 Bastard & the Projectiles - Song About Nothing.flac" WAVE    INDEX 01 00:00:00  TRACK 04 AUDIO    TITLE "She Makes Mad"    PERFORMER "Bastard & the Projectiles"    REM REPLAYGAIN_TRACK_GAIN -9.93 dB    REM REPLAYGAIN_TRACK_PEAK 1.000000    INDEX 00 01:11:64FILE "04 Bastard & the Projectiles - She Makes Mad.flac" WAVE    INDEX 01 00:00:00  TRACK 05 AUDIO    TITLE "Too Bad"    PERFORMER "Bastard & the Projectiles"    REM REPLAYGAIN_TRACK_GAIN -9.95 dB    REM REPLAYGAIN_TRACK_PEAK 1.000000    INDEX 00 02:39:24FILE "05 Bastard & the Projectiles - Too Bad.flac" WAVE    INDEX 01 00:00:00  TRACK 06 AUDIO    TITLE "Wreck'n'Roll"    PERFORMER "Bastard & the Projectiles"    REM REPLAYGAIN_TRACK_GAIN -9.62 dB    REM REPLAYGAIN_TRACK_PEAK 1.000000    INDEX 00 01:30:04FILE "06 Bastard & the Projectiles - Wreck'n'Roll.flac" WAVE    INDEX 01 00:00:00  TRACK 07 AUDIO    TITLE "Outro"    PERFORMER "Bastard & the Projectiles"    REM REPLAYGAIN_TRACK_GAIN -10.38 dB    REM REPLAYGAIN_TRACK_PEAK 1.000000    INDEX 00 02:19:01FILE "07 Bastard & the Projectiles - Outro.flac" WAVE    INDEX 01 00:00:00
Вы не можете начинать темы
Вы не можете отвечать на сообщения
Вы не можете редактировать свои сообщения
Вы не можете удалять свои сообщения
Вы не можете голосовать в опросах
Вы не можете прикреплять файлы к сообщениям
Вы можете скачивать файлы
!ВНИМАНИЕ!

Сайт не предоставляет электронные версии произведений, а занимается лишь коллекционированием и каталогизацией ссылок, присылаемых и публикуемых на форуме нашими читателями. Если вы являетесь правообладателем какого-либо представленного материала и не желаете, чтобы ссылка на него находилась в нашем каталоге, свяжитесь с нами, и мы незамедлительно удалим ее. Файлы для обмена на трекере предоставлены пользователями сайта, и администрация не несет ответственности за их содержание. Просьба не заливать файлы, защищенные авторскими правами, а также файлы нелегального содержания!

Искали программы, игры, дополнения, музыка mp3, аниме, аудио книги, журналы? Добро пожаловать на свободный торрент трекер Torrents, у нас можно скачать бесплатно, без смс и регистрации и прочих ограничений лучшие, отборные сборки программ, игр. Скачать торрентом не составит труда даже не опытному пользователю. Раздачи ежедневно обновляются, только лучшие и качественные раздачи, подробные описания и скриншоты. Огромная коллекция программ для работы со звуком, графикой, дизайном, а так же множество плагинов и инструментов к ним с подробной инструкцией и рекомендациями. Прошивки для навигаторов, карты. Разнообразные игры, для Windows, Linux. В коллекцие есть и старые игры любых жанров, Rpg, Action, Shooter, strategy Множество дополнений, модификаций, сценариев для популярных игр в жанре экш, рпг, гонки, стратегии, логические игры. Множество аддонов и сценариев для Microsoft Flight Simulator Большая коллекция книг, учебников. Если нет возможности купить печатное издание - смело скачивайте цифровую версию книги или, быть может, журнала. Не любите читать - можно загрузить бесплатно аудикнигу. Для веб дизайнеров и программистов так же найдется множество специализированного софта, таких как: редакторы с подсветкой, среды программирования, компоненты, системы управления базами данных, разнообразные скрипты и шаблоны. Не так давно у нас появился материал для автолюбителей и владельцев мото - оригинальные и неоригинальные каталоги запчастей, книги и журналы по ремонту и обслуживанию, видеоуроки, статьи по чип тюнингу, прошивкам. Процедура получения контента элементарная, достаточно просто скачать торрент файл и добавить его в загрузку в вашем торрент клиенте. Если у вас нет специального торрент клиента, вы можете его скачать у нас.