( Rockabilly, Psychobilly, Rock\'n\'Roll) [CD] Trini Lopez - Legends - 1994, FLAC (image+.cue), lossless 

Цитировать
Trini Lopez - Legends
Жанр: Rockabilly, Psychobilly, Rock'n'Roll
Носитель: CD
Страна-производитель диска (релиза): UK
Год издания: 1994
Издатель (лейбл): Legends / MCPS
Номер по каталогу: LECD 040
Страна исполнителя (группы): USA
Аудиокодек: FLAC (*.flac)
Тип рипа: image+.cue
Битрейт аудио: lossless
Продолжительность: 00:52:14
Источник (релизер): alexpika
Наличие сканов в содержимом раздачи: да
Треклист:
01. Gonna Get Along Without You Now (Kellem)
02. Shame And Scandal (Donaldson, Brown)
03. Granada (Lara, Dodd)
04. Cuando Caliente El Sol (Martinoli, C.Rigual, M.Rigual)
05. Besame Mucho (Velanzquez, Skylar)
06. Quizas Quizas Quizas (Davis, Farres)
07. Angelito (Herrera, Ornellas)
08. La Bamba (Traditional Arranged By Lopez)
09. Kansas City (Leiber, Stoller)
10. America (Bernstein, Sondheim)
11. Cielito Lindo (Traditional Arranged By Lopez)
12. If I Had A Hammer (Traditional Arranged By Hays, Seeger)
13. This Land Is Your Land (Traditional Arranged By Guthrie)
14. Lemon Tree (Holt)
15. Michael (Traditional Arranged By Fisher)
16. I'm Coming Home Cindy (Zeller, Lopez)
17. Bye Bye Blondie (Unknown Artist)
18. Guantanamera (Traditional Arranged By Angulo, Marti, Seeger)

Лог создания рипа

Exact Audio Copy V1.0 beta 3 from 29. August 2011
EAC extraction logfile from 18. November 2016, 14:02
Trini Lopez / Legends
Used drive : TSSTcorpCDDVDW SH-216DB Adapter: 0 ID: 0
Read mode : SecureUtilize accurate stream : YesDefeat audio cache : YesMake use of C2 pointers : No
Read offset correction : 6Overread into Lead-In and Lead-Out : NoFill up missing offset samples with silence : YesDelete leading and trailing silent blocks : NoNull samples used in CRC calculations : YesUsed interface : Native Win32 interface for Win NT & 2000
Used output format : User Defined EncoderSelected bitrate : 1024 kBit/sQuality : HighAdd ID3 tag : NoCommand line compressor : C:\Program Files (x86)\Exact Audio Copy\Flac\flac.exeAdditional command line options : -V -8 -T "Date=%year%" -T "Genre=%genre%" %source%
TOC of the extracted CD
Track | Start | Length | Start sector | End sector --------------------------------------------------------- 1 | 0:00.32 | 1:54.73 | 32 | 8654 2 | 1:55.30 | 2:26.42 | 8655 | 19646 3 | 4:21.72 | 3:34.03 | 19647 | 35699 4 | 7:56.00 | 2:31.47 | 35700 | 47071 5 | 10:27.47 | 2:46.30 | 47072 | 59551 6 | 13:14.02 | 2:04.50 | 59552 | 68901 7 | 15:18.52 | 2:56.23 | 68902 | 82124 8 | 18:15.00 | 4:21.42 | 82125 | 101741 9 | 22:36.42 | 3:18.25 | 101742 | 116616 10 | 25:54.67 | 3:32.33 | 116617 | 132549 11 | 29:27.25 | 2:09.00 | 132550 | 142224 12 | 31:36.25 | 3:02.62 | 142225 | 155936 13 | 34:39.12 | 3:53.08 | 155937 | 173419 14 | 38:32.20 | 2:51.45 | 173420 | 186289 15 | 41:23.65 | 2:51.00 | 186290 | 199114 16 | 44:14.65 | 2:19.12 | 199115 | 209551 17 | 46:34.02 | 2:22.13 | 209552 | 220214 18 | 48:56.15 | 3:17.40 | 220215 | 235029
Range status and errors
Selected range
Filename L:\Private\My Audio Ripps\ CD - RIPS\Trini Lopez - Legends\Trini Lopez - Legends.wav
Peak level 84.4 % Extraction speed 2.3 X Range quality 99.9 % Test CRC DDE56752 Copy CRC DDE56752 Copy OK
No errors occurred
AccurateRip summary
Track 1 accurately ripped (confidence 1) [8B164C91] (AR v2)Track 2 accurately ripped (confidence 1) [BACFD9C5] (AR v2)Track 3 accurately ripped (confidence 1) [5E353CCE] (AR v2)Track 4 accurately ripped (confidence 1) [CD768706] (AR v2)Track 5 accurately ripped (confidence 1) [33DA7387] (AR v2)Track 6 accurately ripped (confidence 1) [65715268] (AR v2)Track 7 accurately ripped (confidence 1) [A803EFDE] (AR v2)Track 8 accurately ripped (confidence 1) [6E364E53] (AR v2)Track 9 accurately ripped (confidence 1) [9B5FA8B2] (AR v2)Track 10 accurately ripped (confidence 1) [AD42DFC9] (AR v2)Track 11 accurately ripped (confidence 1) [DC181AEB] (AR v2)Track 12 accurately ripped (confidence 1) [46004135] (AR v2)Track 13 accurately ripped (confidence 1) [CD1FFE5D] (AR v2)Track 14 accurately ripped (confidence 1) [478872FE] (AR v2)Track 15 accurately ripped (confidence 1) [22BFCEFC] (AR v2)Track 16 accurately ripped (confidence 1) [EEDB269E] (AR v2)Track 17 accurately ripped (confidence 1) [C362F2C6] (AR v2)Track 18 accurately ripped (confidence 1) [7B5AD336] (AR v2)
All tracks accurately ripped
End of status report
==== Log checksum 6E9B1063C620957FFA3A69E4D87193E6E8DEF768025D397635453343997F5634 ====

Содержание индексной карты (.CUE)

REM GENRE "Rockabilly"REM DATE 1994REM DISCID 290C3D12REM COMMENT "ExactAudioCopy v1.0b3"PERFORMER "Trini Lopez"TITLE "Legends"FILE "Trini Lopez - Legends.flac" WAVE  TRACK 01 AUDIO    TITLE "Gonna Get Along Without You Now"    PERFORMER "Trini Lopez"    INDEX 00 00:00:00    INDEX 01 00:00:32  TRACK 02 AUDIO    TITLE "Shame And Scandal"    PERFORMER "Trini Lopez"    INDEX 00 01:53:55    INDEX 01 01:55:30  TRACK 03 AUDIO    TITLE "Granada"    PERFORMER "Trini Lopez"    INDEX 00 04:19:10    INDEX 01 04:21:72  TRACK 04 AUDIO    TITLE "Cuando Calienta El Sol"    PERFORMER "Trini Lopez"    INDEX 00 07:52:47    INDEX 01 07:56:00  TRACK 05 AUDIO    TITLE "Besame Mucho"    PERFORMER "Trini Lopez"    INDEX 00 10:25:27    INDEX 01 10:27:47  TRACK 06 AUDIO    TITLE "Quizas Quizas Quizas"    PERFORMER "Trini Lopez"    INDEX 00 13:10:72    INDEX 01 13:14:02  TRACK 07 AUDIO    TITLE "Angelito"    PERFORMER "Trini Lopez"    INDEX 00 15:15:47    INDEX 01 15:18:52  TRACK 08 AUDIO    TITLE "La Bamba"    PERFORMER "Trini Lopez"    INDEX 00 18:13:27    INDEX 01 18:15:00  TRACK 09 AUDIO    TITLE "Kansas City"    PERFORMER "Trini Lopez"    INDEX 00 22:33:57    INDEX 01 22:36:42  TRACK 10 AUDIO    TITLE "America"    PERFORMER "Trini Lopez"    INDEX 00 25:51:67    INDEX 01 25:54:67  TRACK 11 AUDIO    TITLE "Cielito Lindo"    PERFORMER "Trini Lopez"    INDEX 00 29:24:25    INDEX 01 29:27:25  TRACK 12 AUDIO    TITLE "If I Had A Hammer"    PERFORMER "Trini Lopez"    INDEX 00 31:31:42    INDEX 01 31:36:25  TRACK 13 AUDIO    TITLE "This Land Is Your Land"    PERFORMER "Trini Lopez"    INDEX 00 34:36:12    INDEX 01 34:39:12  TRACK 14 AUDIO    TITLE "Lemon Tree"    PERFORMER "Trini Lopez"    INDEX 00 38:29:10    INDEX 01 38:32:20  TRACK 15 AUDIO    TITLE "Michael"    PERFORMER "Trini Lopez"    INDEX 00 41:21:40    INDEX 01 41:23:65  TRACK 16 AUDIO    TITLE "I'm Coming Home Cindy"    PERFORMER "Trini Lopez"    INDEX 00 44:12:12    INDEX 01 44:14:65  TRACK 17 AUDIO    TITLE "Bye Bye Blondie"    PERFORMER "Trini Lopez"    INDEX 00 46:33:17    INDEX 01 46:34:02  TRACK 18 AUDIO    TITLE "Guantanamera"    PERFORMER "Trini Lopez"    INDEX 00 48:53:35    INDEX 01 48:56:15

Лог проверки качества

-----------------------
DON'T MODIFY THIS FILE
-----------------------
PERFORMER: auCDtect Task Manager, ver. 1.5.1RC4 build 1.5.1.5Copyright (c) 2008-2010 y-soft. All rights reservedhttp://y-soft.org
ANALYZER: auCDtect: CD records authenticity detector, version 0.8.2Copyright (c) 2004 Oleg Berngardt. All rights reserved.Copyright (c) 2004 Alexander Djourik. All rights reserved.
FILE: Trini Lopez - Legends.flac Size: 303342756 Hash: A2999A64A7837A4AA16E3063E41CAF7A Accuracy: -m0 Conclusion: CDDA 100% Signature: A5FB154B18BADA25C47A731E0233CD7917D64AD5

DR log

foobar2000 1.3.9 / Замер динамического диапазона (DR) 1.1.1Дата отчёта:  2018-09-12 21:48:30
--------------------------------------------------------------------------------Анализ: Trini Lopez / Legends--------------------------------------------------------------------------------
DR Пики RMS Продолжительность трека--------------------------------------------------------------------------------DR15 -1.56 дБ -19.06 дБ 1:55 1-Gonna Get Along Without You NowDR16 -3.18 дБ -20.99 дБ 2:27 2-Shame And ScandalDR13 -2.47 дБ -18.70 дБ 3:34 3-GranadaDR12 -2.50 дБ -18.92 дБ 2:32 4-Cuando Calienta El SolDR11 -3.40 дБ -17.63 дБ 2:46 5-Besame MuchoDR13 -4.17 дБ -20.80 дБ 2:05 6-Quizas Quizas QuizasDR15 -1.65 дБ -18.87 дБ 2:56 7-AngelitoDR12 -1.47 дБ -15.13 дБ 4:22 8-La BambaDR13 -2.71 дБ -17.77 дБ 3:18 9-Kansas CityDR14 -3.19 дБ -18.60 дБ 3:32 10-AmericaDR13 -2.33 дБ -18.58 дБ 2:09 11-Cielito LindoDR13 -3.25 дБ -17.56 дБ 3:03 12-If I Had A HammerDR12 -2.28 дБ -16.43 дБ 3:53 13-This Land Is Your LandDR13 -1.88 дБ -16.69 дБ 2:52 14-Lemon TreeDR13 -2.32 дБ -18.30 дБ 2:51 15-MichaelDR13 -3.22 дБ -17.96 дБ 2:19 16-I'm Coming Home CindyDR12 -2.45 дБ -16.83 дБ 2:22 17-Bye Bye BlondieDR12 -3.09 дБ -17.94 дБ 3:18 18-Guantanamera--------------------------------------------------------------------------------
Количество треков: 18Реальные значения DR: DR13
Частота: 44100 ГцКаналов: 2Разрядность: 16Битрейт: 774 кбит/сКодек: FLAC================================================================================
Доп. информация

Об исполнителе

Trini Lopez (полное имя Trinidad Lopez III, род. 15 мая 1937) — американский певец, гитарист, актёр. Родился в Далласе, штат Техас, рос на Ашланд-стрит в районе Маленькая Мексика.
Наиболее известен по своему хиту 1963 года «If I Had a Hammer» (кавер на уже известную песню в стиле фолк). Эта запись была на 1-м месте в 36 странах мира (в Америке добралась до 3-го) и потом много лет оставалась одним из любимых треков на радиостанциях. Сингл с ней продался в более чем миллионе экземпляров, за что был сертифицирован золотым.
Как актёра его можно увидеть в составе «грязной дюжины» в одноимённом кинофильме 1967 года.
В 1993 году у Лопеса появилась звезда в Палм-Спрингс на Палм-спрингсевской аллее звёзд. А 15 мая 2008 года, на его 71-й день рождения, — звезда на Лас-вегасской аллее звёзд.
http://en.wikipedia.org/wiki/Trini_Lopez
http://www.trinilopez.com
Вы не можете начинать темы
Вы не можете отвечать на сообщения
Вы не можете редактировать свои сообщения
Вы не можете удалять свои сообщения
Вы не можете голосовать в опросах
Вы не можете прикреплять файлы к сообщениям
Вы можете скачивать файлы
!ВНИМАНИЕ!

Сайт не предоставляет электронные версии произведений, а занимается лишь коллекционированием и каталогизацией ссылок, присылаемых и публикуемых на форуме нашими читателями. Если вы являетесь правообладателем какого-либо представленного материала и не желаете, чтобы ссылка на него находилась в нашем каталоге, свяжитесь с нами, и мы незамедлительно удалим ее. Файлы для обмена на трекере предоставлены пользователями сайта, и администрация не несет ответственности за их содержание. Просьба не заливать файлы, защищенные авторскими правами, а также файлы нелегального содержания!

Искали программы, игры, дополнения, музыка mp3, аниме, аудио книги, журналы? Добро пожаловать на свободный торрент трекер Torrents, у нас можно скачать бесплатно, без смс и регистрации и прочих ограничений лучшие, отборные сборки программ, игр. Скачать торрентом не составит труда даже не опытному пользователю. Раздачи ежедневно обновляются, только лучшие и качественные раздачи, подробные описания и скриншоты. Огромная коллекция программ для работы со звуком, графикой, дизайном, а так же множество плагинов и инструментов к ним с подробной инструкцией и рекомендациями. Прошивки для навигаторов, карты. Разнообразные игры, для Windows, Linux. В коллекцие есть и старые игры любых жанров, Rpg, Action, Shooter, strategy Множество дополнений, модификаций, сценариев для популярных игр в жанре экш, рпг, гонки, стратегии, логические игры. Множество аддонов и сценариев для Microsoft Flight Simulator Большая коллекция книг, учебников. Если нет возможности купить печатное издание - смело скачивайте цифровую версию книги или, быть может, журнала. Не любите читать - можно загрузить бесплатно аудикнигу. Для веб дизайнеров и программистов так же найдется множество специализированного софта, таких как: редакторы с подсветкой, среды программирования, компоненты, системы управления базами данных, разнообразные скрипты и шаблоны. Не так давно у нас появился материал для автолюбителей и владельцев мото - оригинальные и неоригинальные каталоги запчастей, книги и журналы по ремонту и обслуживанию, видеоуроки, статьи по чип тюнингу, прошивкам. Процедура получения контента элементарная, достаточно просто скачать торрент файл и добавить его в загрузку в вашем торрент клиенте. Если у вас нет специального торрент клиента, вы можете его скачать у нас.