(Progressive Metalcore) [CD, WEB] Promethee - Discography - 2010-2018, (4 CD), FLAC (tracks), lossless 

Цитировать
Promethee - Discography

Жанр: Progressive Metalcore Носитель: WEB Год издания: 2010-2018 Страна исполнителя (группы): Switzerland Аудиокодек: FLAC (*.flac)
Тип рипа: tracks Битрейт аудио: lossless Продолжительность: 2:20:16 Источник (релизер): http://listen.tidal.com Наличие сканов в содержимом раздачи: нет

2018 - Convalescence


Источник: tidal.com
1.Convalescence
2.While You Stood Still
3.Endless
4.Merchants
5.Witness
6.Demons
7.The Deep End
8.Soiled
9.Old Bones

log

Started at: âîñêðåñåíüå, 28. 10. 2018. - 9:13.179 files found
1 -===- G:\[FLAC]\Prog. Metalcore\Promethee\2018 - Convalescence [WEB]\01 - Convalescence.flac Extracted successfully Conclusion: this track is CDDA with probability 100% Tempfile successfully deleted.
2 -===- G:\[FLAC]\Prog. Metalcore\Promethee\2018 - Convalescence [WEB]\02 - While You Stood Still.flac Extracted successfully Conclusion: this track is CDDA with probability 99% Tempfile successfully deleted.
3 -===- G:\[FLAC]\Prog. Metalcore\Promethee\2018 - Convalescence [WEB]\03 - Endless.flac Extracted successfully Conclusion: this track is CDDA with probability 100% Tempfile successfully deleted.
4 -===- G:\[FLAC]\Prog. Metalcore\Promethee\2018 - Convalescence [WEB]\04 - Merchants.flac Extracted successfully Conclusion: this track is CDDA with probability 100% Tempfile successfully deleted.
5 -===- G:\[FLAC]\Prog. Metalcore\Promethee\2018 - Convalescence [WEB]\05 - Witness.flac Extracted successfully Conclusion: this track is CDDA with probability 100% Tempfile successfully deleted.
6 -===- G:\[FLAC]\Prog. Metalcore\Promethee\2018 - Convalescence [WEB]\06 - Demons.flac Extracted successfully Conclusion: this track is CDDA with probability 100% Tempfile successfully deleted.
7 -===- G:\[FLAC]\Prog. Metalcore\Promethee\2018 - Convalescence [WEB]\07 - The Deep End.flac Extracted successfully Conclusion: this track is CDDA with probability 100% Tempfile successfully deleted.
8 -===- G:\[FLAC]\Prog. Metalcore\Promethee\2018 - Convalescence [WEB]\08 - Soiled.flac Extracted successfully Conclusion: this track is CDDA with probability 100% Tempfile successfully deleted.
9 -===- G:\[FLAC]\Prog. Metalcore\Promethee\2018 - Convalescence [WEB]\09 - Old Bones.flac Extracted successfully Conclusion: this track is CDDA with probability 100% Tempfile successfully deleted.
Finished at: âîñêðåñåíüå, 28. 10. 2018. - 9:14.44 (operation time: 0:01.26)

2015 - Unrest


Источник: tidal.com
01 Our Common Fall
02 Unspoken
03 Dark Souls
04 Frostbite
05 Age of Unrest
06 The Sour Taste
07 Broken Structures
08 Vacant
09 Inert and Bound
10 Dead Motion
11 Lost Body
12 Echoes of the Universe

log

Started at: âîñêðåñåíüå, 28. 10. 2018. - 9:18.5712 files found
01 -===- G:\[FLAC]\Prog. Metalcore\Promethee\2015 - Unrest [WEB]\01 Our Common Fall.flac Extracted successfully Conclusion: this track is CDDA with probability 100% Tempfile successfully deleted.
02 -===- G:\[FLAC]\Prog. Metalcore\Promethee\2015 - Unrest [WEB]\02 Unspoken.flac Extracted successfully Conclusion: this track is CDDA with probability 99% Tempfile successfully deleted.
03 -===- G:\[FLAC]\Prog. Metalcore\Promethee\2015 - Unrest [WEB]\03 Dark Souls.flac Extracted successfully Conclusion: this track is CDDA with probability 100% Tempfile successfully deleted.
04 -===- G:\[FLAC]\Prog. Metalcore\Promethee\2015 - Unrest [WEB]\04 Frostbite.flac Extracted successfully Conclusion: this track is CDDA with probability 100% Tempfile successfully deleted.
05 -===- G:\[FLAC]\Prog. Metalcore\Promethee\2015 - Unrest [WEB]\05 Age of Unrest.flac Extracted successfully Conclusion: this track is CDDA with probability 100% Tempfile successfully deleted.
06 -===- G:\[FLAC]\Prog. Metalcore\Promethee\2015 - Unrest [WEB]\06 The Sour Taste.flac Extracted successfully Conclusion: this track is CDDA with probability 100% Tempfile successfully deleted.
07 -===- G:\[FLAC]\Prog. Metalcore\Promethee\2015 - Unrest [WEB]\07 Broken Structures.flac Extracted successfully Conclusion: this track is CDDA with probability 99% Tempfile successfully deleted.
08 -===- G:\[FLAC]\Prog. Metalcore\Promethee\2015 - Unrest [WEB]\08 Vacant.flac Extracted successfully Conclusion: this track is CDDA with probability 100% Tempfile successfully deleted.
09 -===- G:\[FLAC]\Prog. Metalcore\Promethee\2015 - Unrest [WEB]\09 Inert and Bound.flac Extracted successfully Conclusion: this track is CDDA with probability 99% Tempfile successfully deleted.
10 -===- G:\[FLAC]\Prog. Metalcore\Promethee\2015 - Unrest [WEB]\10 Dead Motion.flac Extracted successfully Conclusion: this track is CDDA with probability 100% Tempfile successfully deleted.
11 -===- G:\[FLAC]\Prog. Metalcore\Promethee\2015 - Unrest [WEB]\11 Lost Body.flac Extracted successfully Conclusion: this track is CDDA with probability 99% Tempfile successfully deleted.
12 -===- G:\[FLAC]\Prog. Metalcore\Promethee\2015 - Unrest [WEB]\12 Echoes of the Universe.flac Extracted successfully Conclusion: this track is CDDA with probability 100% Tempfile successfully deleted.
Finished at: âîñêðåñåíüå, 28. 10. 2018. - 9:21.02 (operation time: 0:02.05)

2012 - Nothing Happens, Nobody Comes, Nobody Goes


Источник: CD
01 The Great Deception
02 Banner of Lies
03 Buried
04 Of Loss and Disgust
05 Life-less
06 Genesis
07 The New Face of Mankind
08 Thus Spoke
09 Sickness Unto Death
10 Oblivion

log

Exact Audio Copy V1.0 beta 3 from 29. August 2011
EAC extraction logfile from 18. November 2013, 23:36
Promethee / Nothing Happens, Nobody Comes, Nobody Goes
Used drive : TSSTcorpCDDVDW TS-L633C Adapter: 0 ID: 1
Read mode : SecureUtilize accurate stream : YesDefeat audio cache : YesMake use of C2 pointers : No
Read offset correction : 6Overread into Lead-In and Lead-Out : NoFill up missing offset samples with silence : YesDelete leading and trailing silent blocks : NoNull samples used in CRC calculations : YesUsed interface : Installed external ASPI interfaceGap handling : Appended to previous track
Used output format : User Defined EncoderSelected bitrate : 1024 kBit/sQuality : HighAdd ID3 tag : NoCommand line compressor : C:\Program Files (x86)\Exact Audio Copy\FLAC\FLAC.EXEAdditional command line options : -8 -V -T "ARTIST=%artist%" -T "TITLE=%title%" -T "ALBUM=%albumtitle%" -T "DATE=%year%" -T "TRACKNUMBER=%tracknr%" -T "GENRE=%genre%" -T "PERFORMER=%albuminterpret%" -T "COMPOSER=%composer%" %haslyrics%--tag-from-file=LYRICS="%lyricsfile%"%haslyrics% -T "ALBUMARTIST=%albumartist%" -T "DISCNUMBER=%cdnumber%" -T "TOTALDISCS=%totalcds%" -T "TOTALTRACKS=%numtracks%" -T "COMMENT=%comment%" %source% -o %dest%
TOC of the extracted CD
Track | Start | Length | Start sector | End sector --------------------------------------------------------- 1 | 0:00.00 | 4:01.63 | 0 | 18137 2 | 4:01.63 | 3:37.67 | 18138 | 34479 3 | 7:39.55 | 1:33.62 | 34480 | 41516 4 | 9:13.42 | 4:22.55 | 41517 | 61221 5 | 13:36.22 | 4:20.25 | 61222 | 80746 6 | 17:56.47 | 1:16.62 | 80747 | 86508 7 | 19:13.34 | 3:56.12 | 86509 | 104220 8 | 23:09.46 | 5:42.20 | 104221 | 129890 9 | 28:51.66 | 4:45.72 | 129891 | 151337 10 | 33:37.63 | 2:35.35 | 151338 | 162997
Track 1
Filename G:\Sound Lossless\01 - The Great Deception.wav
Pre-gap length 0:00:02.00
Peak level 97.9 % Extraction speed 2.3 X Track quality 100.0 % Test CRC 3EEC09AD Copy CRC 3EEC09AD Track not present in AccurateRip database Copy OK
Track 2
Filename G:\Sound Lossless\02 - Banner Of Lies.wav
Peak level 99.1 % Extraction speed 2.2 X Track quality 100.0 % Test CRC 0B434EAA Copy CRC 0B434EAA Track not present in AccurateRip database Copy OK
Track 3
Filename G:\Sound Lossless\03 - Buried.wav
Peak level 99.1 % Extraction speed 2.0 X Track quality 100.0 % Test CRC 87DC07C0 Copy CRC 87DC07C0 Track not present in AccurateRip database Copy OK
Track 4
Filename G:\Sound Lossless\04 - Of Loss And Disgust.wav
Peak level 99.1 % Extraction speed 2.6 X Track quality 100.0 % Test CRC 967D81F0 Copy CRC 967D81F0 Track not present in AccurateRip database Copy OK
Track 5
Filename G:\Sound Lossless\05 - Life,Less.wav
Peak level 98.0 % Extraction speed 2.9 X Track quality 100.0 % Test CRC BF813B57 Copy CRC BF813B57 Track not present in AccurateRip database Copy OK
Track 6
Filename G:\Sound Lossless\06 - Genesis.wav
Peak level 99.1 % Extraction speed 2.4 X Track quality 100.0 % Test CRC 59D73D33 Copy CRC 59D73D33 Track not present in AccurateRip database Copy OK
Track 7
Filename G:\Sound Lossless\07 - The New Face Of Mankind.wav
Peak level 99.1 % Extraction speed 3.2 X Track quality 100.0 % Test CRC 77003D48 Copy CRC 77003D48 Track not present in AccurateRip database Copy OK
Track 8
Filename G:\Sound Lossless\08 - Thus Spoke.wav
Peak level 99.1 % Extraction speed 3.0 X Track quality 99.9 % Test CRC 150179B6 Copy CRC 150179B6 Track not present in AccurateRip database Copy OK
Track 9
Filename G:\Sound Lossless\09 - Sickness Unto Death.wav
Peak level 99.1 % Extraction speed 3.6 X Track quality 100.0 % Test CRC 99CCF5C2 Copy CRC 99CCF5C2 Track not present in AccurateRip database Copy OK
Track 10
Filename G:\Sound Lossless\10 - Oblivion.wav
Peak level 99.1 % Extraction speed 3.3 X Track quality 100.0 % Test CRC 684BC43F Copy CRC 684BC43F Track not present in AccurateRip database Copy OK
None of the tracks are present in the AccurateRip database
No errors occurred
End of status report
---- CUETools DB Plugin V2.1.3
[CTDB TOCID: Fm1dJqwOr_SuIRmqNwtv9bgxEFM-] disk not present in database, Submit result: Fm1dJqwOr_SuIRmqNwtv9bgxEFM- has been uploaded
==== Log checksum 69DB6890E0D845EB33570D45EE9C504AEB5A36D451FC9DC0F8AA50BA71090B97 ====

cue

REM GENRE MetalcoreREM DATE 2012REM DISCID 7A087D0AREM COMMENT "ExactAudioCopy v1.0b3"PERFORMER "Promethee"TITLE "Nothing Happens, Nobody Comes, Nobody Goes"FILE "01 - The Great Deception.wav" WAVE  TRACK 01 AUDIO    TITLE "The Great Deception"    PERFORMER "Promethee"    INDEX 01 00:00:00FILE "02 - Banner Of Lies.wav" WAVE  TRACK 02 AUDIO    TITLE "Banner Of Lies"    PERFORMER "Promethee"    INDEX 01 00:00:00FILE "03 - Buried.wav" WAVE  TRACK 03 AUDIO    TITLE "Buried"    PERFORMER "Promethee"    INDEX 01 00:00:00FILE "04 - Of Loss And Disgust.wav" WAVE  TRACK 04 AUDIO    TITLE "Of Loss And Disgust"    PERFORMER "Promethee"    INDEX 01 00:00:00FILE "05 - Life,Less.wav" WAVE  TRACK 05 AUDIO    TITLE "Life/Less"    PERFORMER "Promethee"    INDEX 01 00:00:00FILE "06 - Genesis.wav" WAVE  TRACK 06 AUDIO    TITLE "Genesis"    PERFORMER "Promethee"    INDEX 01 00:00:00FILE "07 - The New Face Of Mankind.wav" WAVE  TRACK 07 AUDIO    TITLE "The New Face Of Mankind"    PERFORMER "Promethee"    INDEX 01 00:00:00FILE "08 - Thus Spoke.wav" WAVE  TRACK 08 AUDIO    TITLE "Thus Spoke"    PERFORMER "Promethee"    INDEX 01 00:00:00FILE "09 - Sickness Unto Death.wav" WAVE  TRACK 09 AUDIO    TITLE "Sickness Unto Death"    PERFORMER "Promethee"    INDEX 01 00:00:00FILE "10 - Oblivion.wav" WAVE  TRACK 10 AUDIO    TITLE "Oblivion"    PERFORMER "Promethee"    INDEX 01 00:00:00

2010 - Prometee (EP)


Источник: tidal.com
1. And Then The Earth Was Shaken
2. Shipwreck
3. Sink or swim
4. Ashes
5. Over The Horizon

log

Started at: âîñêðåñåíüå, 28. 10. 2018. - 9:24.135 files found
1 -===- G:\[FLAC]\Prog. Metalcore\Promethee\2010 - Prometee (EP) [WEB]\01 - And Then Earth Was Shaken.flac Extracted successfully Conclusion: this track is MPEG with probability 95% Tempfile successfully deleted.
2 -===- G:\[FLAC]\Prog. Metalcore\Promethee\2010 - Prometee (EP) [WEB]\02 - Shipwreck.flac Extracted successfully Conclusion: this track is MPEG with probability 95% Tempfile successfully deleted.
3 -===- G:\[FLAC]\Prog. Metalcore\Promethee\2010 - Prometee (EP) [WEB]\03 - Sink or Swim.flac Extracted successfully Conclusion: this track is CDDA with probability 100% Tempfile successfully deleted.
4 -===- G:\[FLAC]\Prog. Metalcore\Promethee\2010 - Prometee (EP) [WEB]\04 - Ashes.flac Extracted successfully Conclusion: this track is CDDA with probability 100% Tempfile successfully deleted.
5 -===- G:\[FLAC]\Prog. Metalcore\Promethee\2010 - Prometee (EP) [WEB]\05 - Over the Horizon.flac Extracted successfully Conclusion: this track is MPEG with probability 95% Tempfile successfully deleted.
Finished at: âîñêðåñåíüå, 28. 10. 2018. - 9:24.57 (operation time: 0:00.44)

скриншоты

Вы не можете начинать темы
Вы не можете отвечать на сообщения
Вы не можете редактировать свои сообщения
Вы не можете удалять свои сообщения
Вы не можете голосовать в опросах
Вы не можете прикреплять файлы к сообщениям
Вы можете скачивать файлы
!ВНИМАНИЕ!

Сайт не предоставляет электронные версии произведений, а занимается лишь коллекционированием и каталогизацией ссылок, присылаемых и публикуемых на форуме нашими читателями. Если вы являетесь правообладателем какого-либо представленного материала и не желаете, чтобы ссылка на него находилась в нашем каталоге, свяжитесь с нами, и мы незамедлительно удалим ее. Файлы для обмена на трекере предоставлены пользователями сайта, и администрация не несет ответственности за их содержание. Просьба не заливать файлы, защищенные авторскими правами, а также файлы нелегального содержания!

Искали программы, игры, дополнения, музыка mp3, аниме, аудио книги, журналы? Добро пожаловать на свободный торрент трекер Torrents, у нас можно скачать бесплатно, без смс и регистрации и прочих ограничений лучшие, отборные сборки программ, игр. Скачать торрентом не составит труда даже не опытному пользователю. Раздачи ежедневно обновляются, только лучшие и качественные раздачи, подробные описания и скриншоты. Огромная коллекция программ для работы со звуком, графикой, дизайном, а так же множество плагинов и инструментов к ним с подробной инструкцией и рекомендациями. Прошивки для навигаторов, карты. Разнообразные игры, для Windows, Linux. В коллекцие есть и старые игры любых жанров, Rpg, Action, Shooter, strategy Множество дополнений, модификаций, сценариев для популярных игр в жанре экш, рпг, гонки, стратегии, логические игры. Множество аддонов и сценариев для Microsoft Flight Simulator Большая коллекция книг, учебников. Если нет возможности купить печатное издание - смело скачивайте цифровую версию книги или, быть может, журнала. Не любите читать - можно загрузить бесплатно аудикнигу. Для веб дизайнеров и программистов так же найдется множество специализированного софта, таких как: редакторы с подсветкой, среды программирования, компоненты, системы управления базами данных, разнообразные скрипты и шаблоны. Не так давно у нас появился материал для автолюбителей и владельцев мото - оригинальные и неоригинальные каталоги запчастей, книги и журналы по ремонту и обслуживанию, видеоуроки, статьи по чип тюнингу, прошивкам. Процедура получения контента элементарная, достаточно просто скачать торрент файл и добавить его в загрузку в вашем торрент клиенте. Если у вас нет специального торрент клиента, вы можете его скачать у нас.